  0
SECTION
  2
HEADER
  9
$ACADVER
  1
AC1027
  9
$ACADMAINTVER
 70
   105
  9
$DWGCODEPAGE
  3
ANSI_1252
  9
$REQUIREDVERSIONS
160
                 0
  9
$LASTSAVEDBY
  1
markstone
  9
$INSBASE
 10
0.0
 20
0.0
 30
0.0
  9
$EXTMIN
 10
5.155688116800007
 20
5.202125665500006
 30
0.0
  9
$EXTMAX
 10
415.1556881168
 20
292.2021256655
 30
0.0
  9
$LIMMIN
 10
0.0
 20
0.0
  9
$LIMMAX
 10
420.0
 20
297.0
  9
$ORTHOMODE
 70
     0
  9
$REGENMODE
 70
     1
  9
$FILLMODE
 70
     1
  9
$QTEXTMODE
 70
     0
  9
$MIRRTEXT
 70
     1
  9
$LTSCALE
 40
1.0
  9
$ATTMODE
 70
     1
  9
$TEXTSIZE
 40
2.5
  9
$TRACEWID
 40
1.0
  9
$TEXTSTYLE
  7
Standard
  9
$CLAYER
  8
0
  9
$CELTYPE
  6
ByLayer
  9
$CECOLOR
 62
   256
  9
$CELTSCALE
 40
1.0
  9
$DISPSILH
 70
     0
  9
$DIMSCALE
 40
1.0
  9
$DIMASZ
 40
3.302
  9
$DIMEXO
 40
1.0
  9
$DIMDLI
 40
3.75
  9
$DIMRND
 40
0.0
  9
$DIMDLE
 40
0.0
  9
$DIMEXE
 40
1.0
  9
$DIMTP
 40
0.0
  9
$DIMTM
 40
0.0
  9
$DIMTXT
 40
3.5
  9
$DIMCEN
 40
2.5
  9
$DIMTSZ
 40
0.0
  9
$DIMTOL
 70
     0
  9
$DIMLIM
 70
     0
  9
$DIMTIH
 70
     1
  9
$DIMTOH
 70
     1
  9
$DIMSE1
 70
     0
  9
$DIMSE2
 70
     0
  9
$DIMTAD
 70
     1
  9
$DIMZIN
 70
     0
  9
$DIMBLK
  1

  9
$DIMASO
 70
     1
  9
$DIMSHO
 70
     1
  9
$DIMPOST
  1

  9
$DIMAPOST
  1

  9
$DIMALT
 70
     0
  9
$DIMALTD
 70
     3
  9
$DIMALTF
 40
0.0393700787
  9
$DIMLFAC
 40
1.0
  9
$DIMTOFL
 70
     1
  9
$DIMTVP
 40
0.0
  9
$DIMTIX
 70
     0
  9
$DIMSOXD
 70
     0
  9
$DIMSAH
 70
     0
  9
$DIMBLK1
  1

  9
$DIMBLK2
  1

  9
$DIMSTYLE
  2
ISO-25
  9
$DIMCLRD
 70
     0
  9
$DIMCLRE
 70
     0
  9
$DIMCLRT
 70
     0
  9
$DIMTFAC
 40
1.0
  9
$DIMGAP
 40
1.524
  9
$DIMJUST
 70
     0
  9
$DIMSD1
 70
     0
  9
$DIMSD2
 70
     0
  9
$DIMTOLJ
 70
     0
  9
$DIMTZIN
 70
     0
  9
$DIMALTZ
 70
     0
  9
$DIMALTTZ
 70
     0
  9
$DIMUPT
 70
     0
  9
$DIMDEC
 70
     3
  9
$DIMTDEC
 70
     3
  9
$DIMALTU
 70
     2
  9
$DIMALTTD
 70
     3
  9
$DIMTXSTY
  7
Standard
  9
$DIMAUNIT
 70
     0
  9
$DIMADEC
 70
     2
  9
$DIMALTRND
 40
0.0
  9
$DIMAZIN
 70
     0
  9
$DIMDSEP
 70
    44
  9
$DIMATFIT
 70
     3
  9
$DIMFRAC
 70
     0
  9
$DIMLDRBLK
  1

  9
$DIMLUNIT
 70
     2
  9
$DIMLWD
 70
    -2
  9
$DIMLWE
 70
    -2
  9
$DIMTMOVE
 70
     0
  9
$DIMFXL
 40
1.0
  9
$DIMFXLON
 70
     0
  9
$DIMJOGANG
 40
0.7853981633974483
  9
$DIMTFILL
 70
     0
  9
$DIMTFILLCLR
 70
     0
  9
$DIMARCSYM
 70
     0
  9
$DIMLTYPE
  6

  9
$DIMLTEX1
  6

  9
$DIMLTEX2
  6

  9
$DIMTXTDIRECTION
 70
     0
  9
$LUNITS
 70
     2
  9
$LUPREC
 70
     1
  9
$SKETCHINC
 40
1.0
  9
$FILLETRAD
 40
10.0
  9
$AUNITS
 70
     0
  9
$AUPREC
 70
     0
  9
$MENU
  1
.
  9
$ELEVATION
 40
0.0
  9
$PELEVATION
 40
0.0
  9
$THICKNESS
 40
0.0
  9
$LIMCHECK
 70
     0
  9
$CHAMFERA
 40
0.0
  9
$CHAMFERB
 40
0.0
  9
$CHAMFERC
 40
20.0
  9
$CHAMFERD
 40
0.0
  9
$SKPOLY
 70
     0
  9
$TDCREATE
 40
2458380.44441912
  9
$TDUCREATE
 40
2458380.027752454
  9
$TDUPDATE
 40
2458382.480420486
  9
$TDUUPDATE
 40
2458382.06375382
  9
$TDINDWG
 40
0.000000081
  9
$TDUSRTIMER
 40
0.0079381944
  9
$USRTIMER
 70
     1
  9
$ANGBASE
 50
0.0
  9
$ANGDIR
 70
     0
  9
$PDMODE
 70
     0
  9
$PDSIZE
 40
-1.0
  9
$PLINEWID
 40
0.0
  9
$SPLFRAME
 70
     0
  9
$SPLINETYPE
 70
     6
  9
$SPLINESEGS
 70
     8
  9
$HANDSEED
  5
1502
  9
$SURFTAB1
 70
     6
  9
$SURFTAB2
 70
     6
  9
$SURFTYPE
 70
     6
  9
$SURFU
 70
     6
  9
$SURFV
 70
     6
  9
$UCSBASE
  2

  9
$UCSNAME
  2

  9
$UCSORG
 10
0.0
 20
0.0
 30
0.0
  9
$UCSXDIR
 10
1.0
 20
0.0
 30
0.0
  9
$UCSYDIR
 10
0.0
 20
1.0
 30
0.0
  9
$UCSORTHOREF
  2

  9
$UCSORTHOVIEW
 70
     0
  9
$UCSORGTOP
 10
0.0
 20
0.0
 30
0.0
  9
$UCSORGBOTTOM
 10
0.0
 20
0.0
 30
0.0
  9
$UCSORGLEFT
 10
0.0
 20
0.0
 30
0.0
  9
$UCSORGRIGHT
 10
0.0
 20
0.0
 30
0.0
  9
$UCSORGFRONT
 10
0.0
 20
0.0
 30
0.0
  9
$UCSORGBACK
 10
0.0
 20
0.0
 30
0.0
  9
$PUCSBASE
  2

  9
$PUCSNAME
  2

  9
$PUCSORG
 10
0.0
 20
0.0
 30
0.0
  9
$PUCSXDIR
 10
1.0
 20
0.0
 30
0.0
  9
$PUCSYDIR
 10
0.0
 20
1.0
 30
0.0
  9
$PUCSORTHOREF
  2

  9
$PUCSORTHOVIEW
 70
     0
  9
$PUCSORGTOP
 10
0.0
 20
0.0
 30
0.0
  9
$PUCSORGBOTTOM
 10
0.0
 20
0.0
 30
0.0
  9
$PUCSORGLEFT
 10
0.0
 20
0.0
 30
0.0
  9
$PUCSORGRIGHT
 10
0.0
 20
0.0
 30
0.0
  9
$PUCSORGFRONT
 10
0.0
 20
0.0
 30
0.0
  9
$PUCSORGBACK
 10
0.0
 20
0.0
 30
0.0
  9
$USERI1
 70
     0
  9
$USERI2
 70
     0
  9
$USERI3
 70
     0
  9
$USERI4
 70
     0
  9
$USERI5
 70
     0
  9
$USERR1
 40
0.0
  9
$USERR2
 40
0.0
  9
$USERR3
 40
0.0
  9
$USERR4
 40
0.0
  9
$USERR5
 40
0.0
  9
$WORLDVIEW
 70
     1
  9
$SHADEDGE
 70
     3
  9
$SHADEDIF
 70
    70
  9
$TILEMODE
 70
     1
  9
$MAXACTVP
 70
    64
  9
$PINSBASE
 10
0.0
 20
0.0
 30
0.0
  9
$PLIMCHECK
 70
     0
  9
$PEXTMIN
 10
1.000000000000000E+20
 20
1.000000000000000E+20
 30
1.000000000000000E+20
  9
$PEXTMAX
 10
-1.000000000000000E+20
 20
-1.000000000000000E+20
 30
-1.000000000000000E+20
  9
$PLIMMIN
 10
0.0
 20
0.0
  9
$PLIMMAX
 10
0.0
 20
0.0
  9
$UNITMODE
 70
     0
  9
$VISRETAIN
 70
     1
  9
$PLINEGEN
 70
     0
  9
$PSLTSCALE
 70
     1
  9
$TREEDEPTH
 70
  3020
  9
$CMLSTYLE
  2
Standard
  9
$CMLJUST
 70
     0
  9
$CMLSCALE
 40
20.0
  9
$PROXYGRAPHICS
 70
     1
  9
$MEASUREMENT
 70
     1
  9
$CELWEIGHT
370
    -1
  9
$ENDCAPS
280
     0
  9
$JOINSTYLE
280
     0
  9
$LWDISPLAY
290
     1
  9
$INSUNITS
 70
     4
  9
$HYPERLINKBASE
  1

  9
$STYLESHEET
  1

  9
$XEDIT
290
     1
  9
$CEPSNTYPE
380
     0
  9
$PSTYLEMODE
290
     1
  9
$FINGERPRINTGUID
  2
{D0A13565-4D99-4D34-AC4B-B81972891C5D}
  9
$VERSIONGUID
  2
{FAEB1C32-E019-11D5-929B-00C0DF256EC4}
  9
$EXTNAMES
290
     1
  9
$PSVPSCALE
 40
0.0
  9
$OLESTARTUP
290
     0
  9
$SORTENTS
280
   127
  9
$INDEXCTL
280
     0
  9
$HIDETEXT
280
     1
  9
$XCLIPFRAME
280
     2
  9
$HALOGAP
280
     0
  9
$OBSCOLOR
 70
   257
  9
$OBSLTYPE
280
     0
  9
$INTERSECTIONDISPLAY
280
     0
  9
$INTERSECTIONCOLOR
 70
   257
  9
$DIMASSOC
280
     2
  9
$PROJECTNAME
  1

  9
$CAMERADISPLAY
290
     0
  9
$LENSLENGTH
 40
50.0
  9
$CAMERAHEIGHT
 40
0.0
  9
$STEPSPERSEC
 40
2.0
  9
$STEPSIZE
 40
6.0
  9
$3DDWFPREC
 40
2.0
  9
$PSOLWIDTH
 40
5.0
  9
$PSOLHEIGHT
 40
80.0
  9
$LOFTANG1
 40
1.570796326794897
  9
$LOFTANG2
 40
1.570796326794897
  9
$LOFTMAG1
 40
0.0
  9
$LOFTMAG2
 40
0.0
  9
$LOFTPARAM
 70
     7
  9
$LOFTNORMALS
280
     1
  9
$LATITUDE
 40
37.795
  9
$LONGITUDE
 40
-122.394
  9
$NORTHDIRECTION
 40
0.0
  9
$TIMEZONE
 70
 -8000
  9
$LIGHTGLYPHDISPLAY
280
     1
  9
$TILEMODELIGHTSYNCH
280
     1
  9
$SOLIDHIST
280
     0
  9
$SHOWHIST
280
     1
  9
$DWFFRAME
280
     2
  9
$DGNFRAME
280
     2
  9
$REALWORLDSCALE
290
     1
  9
$INTERFERECOLOR
 62
   256
  9
$CSHADOW
280
     0
  9
$SHADOWPLANELOCATION
 40
0.0
  0
ENDSEC
  0
SECTION
  2
CLASSES
  0
CLASS
  1
ACDBDICTIONARYWDFLT
  2
AcDbDictionaryWithDefault
  3
ObjectDBX Classes
 90
        0
 91
        4
280
     0
281
     0
  0
CLASS
  1
VISUALSTYLE
  2
AcDbVisualStyle
  3
ObjectDBX Classes
 90
     4095
 91
        4
280
     0
281
     0
  0
CLASS
  1
SCALE
  2
AcDbScale
  3
ObjectDBX Classes
 90
     1153
 91
        4
280
     0
281
     0
  0
CLASS
  1
DICTIONARYVAR
  2
AcDbDictionaryVar
  3
ObjectDBX Classes
 90
        0
 91
        4
280
     0
281
     0
  0
CLASS
  1
ACDBPLACEHOLDER
  2
AcDbPlaceHolder
  3
ObjectDBX Classes
 90
        0
 91
        1
280
     0
281
     0
  0
CLASS
  1
LAYOUT
  2
AcDbLayout
  3
ObjectDBX Classes
 90
        0
 91
        1
280
     0
281
     0
  0
CLASS
  1
MATERIAL
  2
AcDbMaterial
  3
ObjectDBX Classes
 90
     1153
 91
        4
280
     0
281
     0
  0
CLASS
  1
TABLESTYLE
  2
AcDbTableStyle
  3
ObjectDBX Classes
 90
     4095
 91
        4
280
     0
281
     0
  0
CLASS
  1
MLEADERSTYLE
  2
AcDbMLeaderStyle
  3
ACDB_MLEADERSTYLE_CLASS
 90
     4095
 91
        4
280
     0
281
     0
  0
CLASS
  1
SUN
  2
AcDbSun
  3
SCENEOE
 90
     1153
 91
        4
280
     0
281
     0
  0
CLASS
  1
DIMASSOC
  2
AcDbDimAssoc
  3
"AcDbDimAssoc|Product Desc:     AcDim ARX App For Dimension|Company:          Autodesk, Inc.|WEB Address:      www.autodesk.com"
 90
        0
 91
        4
280
     0
281
     0
  0
CLASS
  1
CELLSTYLEMAP
  2
AcDbCellStyleMap
  3
ObjectDBX Classes
 90
     1152
 91
        4
280
     0
281
     0
  0
ENDSEC
  0
SECTION
  2
TABLES
  0
TABLE
  2
VPORT
  5
8
330
0
100
AcDbSymbolTable
 70
     1
  0
VPORT
  5
29
330
8
100
AcDbSymbolTableRecord
100
AcDbViewportTableRecord
  2
*Active
 70
     0
 10
0.0
 20
0.0
 11
1.0
 21
1.0
 12
135.2645331789473
 22
76.6338157894737
 13
0.0
 23
0.0
 14
10.0
 24
10.0
 15
10.0
 25
10.0
 16
0.0
 26
0.0
 36
1.0
 17
0.0
 27
0.0
 37
0.0
 40
302.94
 41
1.981424148606811
 42
50.0
 43
0.0
 44
0.0
 50
0.0
 51
0.0
 71
    16
 72
  2000
 73
     1
 74
     3
 75
     0
 76
     0
 77
     0
 78
     0
281
     0
 65
     1
110
0.0
120
0.0
130
0.0
111
1.0
121
0.0
131
0.0
112
0.0
122
1.0
132
0.0
 79
     0
146
0.0
348
2F
 60
     3
 61
     5
292
     1
282
     1
141
0.0
142
0.0
 63
   256
361
13AC
  0
ENDTAB
  0
TABLE
  2
LTYPE
  5
5
330
0
100
AcDbSymbolTable
 70
     6
  0
LTYPE
  5
14
330
5
100
AcDbSymbolTableRecord
100
AcDbLinetypeTableRecord
  2
ByBlock
 70
     0
  3

 72
    65
 73
     0
 40
0.0
  0
LTYPE
  5
15
330
5
100
AcDbSymbolTableRecord
100
AcDbLinetypeTableRecord
  2
ByLayer
 70
     0
  3

 72
    65
 73
     0
 40
0.0
  0
LTYPE
  5
16
330
5
100
AcDbSymbolTableRecord
100
AcDbLinetypeTableRecord
  2
Continuous
 70
     0
  3
Solid line
 72
    65
 73
     0
 40
0.0
  0
LTYPE
  5
3B
330
5
100
AcDbSymbolTableRecord
100
AcDbLinetypeTableRecord
  2
HIDDEN
 70
     0
  3
Hidden __ __ __ __ __ __ __ __ __ __ __ __ __ __
 72
    65
 73
     2
 40
1.905
 49
1.27
 74
     0
 49
-0.635
 74
     0
  0
LTYPE
  5
3C
330
5
100
AcDbSymbolTableRecord
100
AcDbLinetypeTableRecord
  2
PHANTOM
 70
     0
  3
Phantom ______  __  __  ______  __  __  ______
 72
    65
 73
     6
 40
12.7
 49
6.35
 74
     0
 49
-1.27
 74
     0
 49
1.27
 74
     0
 49
-1.27
 74
     0
 49
1.27
 74
     0
 49
-1.27
 74
     0
  0
LTYPE
  5
3D
330
5
100
AcDbSymbolTableRecord
100
AcDbLinetypeTableRecord
  2
CENTER
 70
     0
  3
Center ____ _ ____ _ ____ _ ____ _ ____ _ ____
 72
    65
 73
     4
 40
10.16
 49
6.35
 74
     0
 49
-1.27
 74
     0
 49
1.27
 74
     0
 49
-1.27
 74
     0
  0
LTYPE
  5
3E
330
5
100
AcDbSymbolTableRecord
100
AcDbLinetypeTableRecord
  2
CENTERX2
 70
     0
  3
Center (2x) ________  __  ________  __  _____
 72
    65
 73
     4
 40
20.32
 49
12.7
 74
     0
 49
-2.54
 74
     0
 49
2.54
 74
     0
 49
-2.54
 74
     0
  0
LTYPE
  5
3F
330
5
100
AcDbSymbolTableRecord
100
AcDbLinetypeTableRecord
  2
DOT2
 70
     0
  3
Dot (.5x) ........................................
 72
    65
 73
     2
 40
0.635
 49
0.0
 74
     0
 49
-0.635
 74
     0
  0
ENDTAB
  0
TABLE
  2
LAYER
  5
2
330
0
100
AcDbSymbolTable
 70
     4
  0
LAYER
  5
10
330
2
100
AcDbSymbolTableRecord
100
AcDbLayerTableRecord
  2
0
 70
     0
 62
     7
  6
Continuous
370
    -3
390
F
347
138F
348
0
  0
LAYER
  5
40
330
2
100
AcDbSymbolTableRecord
100
AcDbLayerTableRecord
  2
SLD-0
 70
     0
 62
   161
  6
Continuous
370
    -3
390
F
347
138F
348
0
  0
LAYER
  5
41
330
2
100
AcDbSymbolTableRecord
100
AcDbLayerTableRecord
  2
TITLE_BLOCK
 70
     0
 62
     7
  6
Continuous
370
    -3
390
F
347
138F
348
0
  0
LAYER
  5
13B0
330
2
100
AcDbSymbolTableRecord
100
AcDbLayerTableRecord
  2
Defpoints
 70
     0
 62
     7
  6
Continuous
290
     0
370
    -3
390
F
347
138F
348
0
  0
ENDTAB
  0
TABLE
  2
STYLE
  5
3
330
0
100
AcDbSymbolTable
 70
     6
  0
STYLE
  5
11
330
3
100
AcDbSymbolTableRecord
100
AcDbTextStyleTableRecord
  2
Standard
 70
     0
 40
0.0
 41
1.0
 50
0.0
 71
     0
 42
2.5
  3
txt
  4

  0
STYLE
  5
BD
330
3
100
AcDbSymbolTableRecord
100
AcDbTextStyleTableRecord
  2
SLDTEXTSTYLE0
 70
     0
 40
0.0
 41
0.6875
 50
0.0
 71
     0
 42
0.2
  3
TXT
  4

  0
STYLE
  5
E1
330
3
100
AcDbSymbolTableRecord
100
AcDbTextStyleTableRecord
  2
SLDTEXTSTYLE1
 70
     0
 40
0.0
 41
0.75
 50
0.0
 71
     0
 42
0.2
  3
TXT
  4

  0
STYLE
  5
E9
330
3
100
AcDbSymbolTableRecord
100
AcDbTextStyleTableRecord
  2
SLDTEXTSTYLE2
 70
     0
 40
0.0
 41
0.6
 50
0.0
 71
     0
 42
0.2
  3
TXT
  4

  0
STYLE
  5
EC
330
3
100
AcDbSymbolTableRecord
100
AcDbTextStyleTableRecord
  2
SLDTEXTSTYLE3
 70
     0
 40
0.0
 41
0.484
 50
0.0
 71
     0
 42
0.2
  3
TXT
  4

  0
STYLE
  5
13E
330
3
100
AcDbSymbolTableRecord
100
AcDbTextStyleTableRecord
  2
SLDTEXTSTYLE4
 70
     0
 40
0.0
 41
0.605
 50
0.0
 71
     0
 42
0.2
  3
TXT
  4

  0
ENDTAB
  0
TABLE
  2
VIEW
  5
6
330
0
100
AcDbSymbolTable
 70
     0
  0
ENDTAB
  0
TABLE
  2
UCS
  5
7
330
0
100
AcDbSymbolTable
 70
     0
  0
ENDTAB
  0
TABLE
  2
APPID
  5
9
330
0
100
AcDbSymbolTable
 70
     2
  0
APPID
  5
12
330
9
100
AcDbSymbolTableRecord
100
AcDbRegAppTableRecord
  2
ACAD
 70
     0
  0
APPID
  5
14AB
330
9
100
AcDbSymbolTableRecord
100
AcDbRegAppTableRecord
  2
PE_URL
 70
     0
  0
ENDTAB
  0
TABLE
  2
DIMSTYLE
  5
A
330
0
100
AcDbSymbolTable
 70
     3
100
AcDbDimStyleTable
  0
DIMSTYLE
105
27
102
{ACAD_REACTORS
330
13B4
330
13C7
330
1404
330
1475
330
1489
330
1499
102
}
330
A
100
AcDbSymbolTableRecord
100
AcDbDimStyleTableRecord
  2
ISO-25
 70
     0
 41
2.5
 42
0.625
 43
3.75
 44
1.25
 73
     0
 74
     0
 77
     1
 78
     8
140
2.5
141
2.5
143
0.0393700787
147
0.625
171
     3
172
     1
178
     0
271
     2
272
     2
274
     3
278
    44
283
     0
284
     8
340
11
  0
DIMSTYLE
105
84A
330
A
100
AcDbSymbolTableRecord
100
AcDbDimStyleTableRecord
  2
SLDDIMSTYLE0
 70
     0
 41
3.302
 44
0.0
 45
0.000000001
 73
     0
 74
     0
 77
     2
 78
    12
140
3.5
147
0.875
173
     1
178
     0
271
     2
272
     2
284
    12
340
E1
  0
DIMSTYLE
105
861
330
A
100
AcDbSymbolTableRecord
100
AcDbDimStyleTableRecord
  2
SLDDIMSTYLE1
 70
     0
 41
3.302
 44
0.0
 45
0.000000001
 73
     0
 74
     0
 77
     2
 78
     4
140
3.5
147
0.875
173
     1
178
     0
271
     2
272
     2
284
    12
340
E1
  0
ENDTAB
  0
TABLE
  2
BLOCK_RECORD
  5
1
330
0
100
AcDbSymbolTable
 70
    29
  0
BLOCK_RECORD
  5
1F
330
1
100
AcDbSymbolTableRecord
100
AcDbBlockTableRecord
  2
*Model_Space
340
22
 70
     0
280
     1
281
     0
  0
BLOCK_RECORD
  5
1B
330
1
100
AcDbSymbolTableRecord
100
AcDbBlockTableRecord
  2
*Paper_Space
340
1E
 70
     0
280
     1
281
     0
  0
BLOCK_RECORD
  5
23
330
1
100
AcDbSymbolTableRecord
100
AcDbBlockTableRecord
  2
*Paper_Space0
340
26
 70
     0
280
     1
281
     0
  0
BLOCK_RECORD
  5
E6
330
1
100
AcDbSymbolTableRecord
100
AcDbBlockTableRecord
  2
SW_NOTE_0
340
0
102
{BLKREFS
331
F2
102
}
 70
     0
280
     1
281
     0
  0
BLOCK_RECORD
  5
F6
330
1
100
AcDbSymbolTableRecord
100
AcDbBlockTableRecord
  2
SW_NOTE_1
340
0
102
{BLKREFS
331
FC
102
}
 70
     0
280
     1
281
     0
  0
BLOCK_RECORD
  5
FD
330
1
100
AcDbSymbolTableRecord
100
AcDbBlockTableRecord
  2
SW_NOTE_2
340
0
102
{BLKREFS
331
10A
102
}
 70
     0
280
     1
281
     0
  0
BLOCK_RECORD
  5
10E
330
1
100
AcDbSymbolTableRecord
100
AcDbBlockTableRecord
  2
SW_NOTE_3
340
0
 70
     0
280
     1
281
     0
  0
BLOCK_RECORD
  5
11E
330
1
100
AcDbSymbolTableRecord
100
AcDbBlockTableRecord
  2
SW_NOTE_4
340
0
102
{BLKREFS
331
12B
102
}
 70
     0
280
     1
281
     0
  0
BLOCK_RECORD
  5
12D
330
1
100
AcDbSymbolTableRecord
100
AcDbBlockTableRecord
  2
SW_NOTE_5
340
0
102
{BLKREFS
331
13A
102
}
 70
     0
280
     1
281
     0
  0
BLOCK_RECORD
  5
140
330
1
100
AcDbSymbolTableRecord
100
AcDbBlockTableRecord
  2
SW_TABLEANNOTATION_0
340
0
102
{BLKREFS
331
154
102
}
 70
     0
280
     1
281
     0
  0
BLOCK_RECORD
  5
875
330
1
100
AcDbSymbolTableRecord
100
AcDbBlockTableRecord
  2
SW_CENTERMARKSYMBOL_0
340
0
 70
     0
280
     1
281
     0
  0
BLOCK_RECORD
  5
881
330
1
100
AcDbSymbolTableRecord
100
AcDbBlockTableRecord
  2
SW_CENTERMARKSYMBOL_1
340
0
 70
     0
280
     1
281
     0
  0
BLOCK_RECORD
  5
88D
330
1
100
AcDbSymbolTableRecord
100
AcDbBlockTableRecord
  2
SW_CENTERMARKSYMBOL_2
340
0
 70
     0
280
     1
281
     0
  0
BLOCK_RECORD
  5
901
330
1
100
AcDbSymbolTableRecord
100
AcDbBlockTableRecord
  2
SW_HATCH_0
340
0
 70
     0
280
     1
281
     0
  0
BLOCK_RECORD
  5
11B5
330
1
100
AcDbSymbolTableRecord
100
AcDbBlockTableRecord
  2
SW_CENTERMARKSYMBOL_3
340
0
 70
     0
280
     1
281
     0
  0
BLOCK_RECORD
  5
13B7
330
1
100
AcDbSymbolTableRecord
100
AcDbBlockTableRecord
  2
*D19
340
0
 70
     0
280
     1
281
     0
  0
BLOCK_RECORD
  5
13CA
330
1
100
AcDbSymbolTableRecord
100
AcDbBlockTableRecord
  2
*D20
340
0
 70
     0
280
     1
281
     0
  0
BLOCK_RECORD
  5
1407
330
1
100
AcDbSymbolTableRecord
100
AcDbBlockTableRecord
  2
*D22
340
0
 70
     0
280
     1
281
     0
  0
BLOCK_RECORD
  5
1478
330
1
100
AcDbSymbolTableRecord
100
AcDbBlockTableRecord
  2
*D25
340
0
 70
     0
280
     1
281
     0
  0
BLOCK_RECORD
  5
148C
330
1
100
AcDbSymbolTableRecord
100
AcDbBlockTableRecord
  2
*D26
340
0
 70
     0
280
     1
281
     0
  0
BLOCK_RECORD
  5
149C
330
1
100
AcDbSymbolTableRecord
100
AcDbBlockTableRecord
  2
*D27
340
0
 70
     0
280
     1
281
     0
  0
ENDTAB
  0
ENDSEC
  0
SECTION
  2
BLOCKS
  0
BLOCK
  5
20
330
1F
100
AcDbEntity
  8
0
100
AcDbBlockBegin
  2
*Model_Space
 70
     0
 10
0.0
 20
0.0
 30
0.0
  3
*Model_Space
  1

  0
ENDBLK
  5
21
330
1F
100
AcDbEntity
  8
0
100
AcDbBlockEnd
  0
BLOCK
  5
1C
330
1B
100
AcDbEntity
 67
     1
  8
0
100
AcDbBlockBegin
  2
*Paper_Space
 70
     0
 10
0.0
 20
0.0
 30
0.0
  3
*Paper_Space
  1

  0
ENDBLK
  5
1D
330
1B
100
AcDbEntity
 67
     1
  8
0
100
AcDbBlockEnd
  0
BLOCK
  5
24
330
23
100
AcDbEntity
  8
0
100
AcDbBlockBegin
  2
*Paper_Space0
 70
     0
 10
0.0
 20
0.0
 30
0.0
  3
*Paper_Space0
  1

  0
ENDBLK
  5
25
330
23
100
AcDbEntity
  8
0
100
AcDbBlockEnd
  0
BLOCK
  5
E7
330
E6
100
AcDbEntity
  8
0
100
AcDbBlockBegin
  2
SW_NOTE_0
 70
     0
 10
0.0
 20
0.0
 30
0.0
  3
SW_NOTE_0
  1

  0
MTEXT
  5
EA
330
E6
100
AcDbEntity
  8
TITLE_BLOCK
 62
     0
100
AcDbMText
 10
0.0
 20
2.7285267159
 30
0.0
 40
2.1166666667
 41
0.0
 46
0.0
 71
     1
 72
     1
  1
These designs, drawings and specifications and the copyright therein are the 
  7
SLDTEXTSTYLE2
 73
     1
 44
1.0
  0
MTEXT
  5
EB
330
E6
100
AcDbEntity
  8
TITLE_BLOCK
 62
     0
100
AcDbMText
 10
0.0
 20
-0.0936954723
 30
0.0
 40
2.1166666667
 41
0.0
 46
0.0
 71
     1
 72
     1
  1
property of JOINLOX
  7
SLDTEXTSTYLE2
 73
     1
 44
1.0
  0
MTEXT
  5
ED
330
E6
100
AcDbEntity
  8
TITLE_BLOCK
 62
     0
100
AcDbMText
 10
21.1862660944
 20
-0.6023780424
 30
0.0
 40
1.5875
 41
0.0
 46
0.0
 71
     1
 72
     1
  1
®
  7
SLDTEXTSTYLE3
 73
     1
 44
1.0
  0
MTEXT
  5
EE
330
E6
100
AcDbEntity
  8
TITLE_BLOCK
 62
     0
100
AcDbMText
 10
22.4339235574
 20
-0.0936954723
 30
0.0
 40
2.1166666667
 41
0.0
 46
0.0
 71
     1
 72
     1
  1
 and must not be divulged to any other party, reproduced 
  7
SLDTEXTSTYLE2
 73
     1
 44
1.0
  0
MTEXT
  5
EF
330
E6
100
AcDbEntity
  8
TITLE_BLOCK
 62
     0
100
AcDbMText
 10
0.0
 20
-2.9159176604
 30
0.0
 40
2.1166666667
 41
0.0
 46
0.0
 71
     1
 72
     1
  1
or copied wholly or in part without the written permission of JOINLOX
  7
SLDTEXTSTYLE2
 73
     1
 44
1.0
  0
MTEXT
  5
F0
330
E6
100
AcDbEntity
  8
TITLE_BLOCK
 62
     0
100
AcDbMText
 10
70.544578135
 20
-3.4246002305
 30
0.0
 40
1.5875
 41
0.0
 46
0.0
 71
     1
 72
     1
  1
®
  7
SLDTEXTSTYLE3
 73
     1
 44
1.0
  0
MTEXT
  5
F1
330
E6
100
AcDbEntity
  8
TITLE_BLOCK
 62
     0
100
AcDbMText
 10
71.7922374606
 20
-2.9159176604
 30
0.0
 40
2.1166666667
 41
0.0
 46
0.0
 71
     1
 72
     1
  1
.
  7
SLDTEXTSTYLE2
 73
     1
 44
1.0
  0
ENDBLK
  5
E8
330
E6
100
AcDbEntity
  8
0
100
AcDbBlockEnd
  0
BLOCK
  5
F7
330
F6
100
AcDbEntity
  8
0
100
AcDbBlockBegin
  2
SW_NOTE_1
 70
     0
 10
0.0
 20
0.0
 30
0.0
  3
SW_NOTE_1
  1

  0
MTEXT
  5
F9
330
F6
100
AcDbEntity
  8
TITLE_BLOCK
 62
     0
100
AcDbMText
 10
0.0
 20
2.3874608764
 30
0.0
 40
1.8520833333
 41
0.0
 46
0.0
 71
     1
 72
     1
  1
2/30 Walker St, Tennyson QLD 4105
  7
SLDTEXTSTYLE2
 73
     1
 44
1.0
  0
MTEXT
  5
FA
330
F6
100
AcDbEntity
  8
TITLE_BLOCK
 62
     0
100
AcDbMText
 10
3.9204405621
 20
-0.0819835382
 30
0.0
 40
1.8520833333
 41
0.0
 46
0.0
 71
     1
 72
     1
  1
TELEPHONE: 07 3892 4458
  7
SLDTEXTSTYLE2
 73
     1
 44
1.0
  0
MTEXT
  5
FB
330
F6
100
AcDbEntity
  8
TITLE_BLOCK
 62
     0
100
AcDbMText
 10
4.3144728988
 20
-2.5865637549
 30
0.0
 40
2.6458333333
 41
0.0
 46
0.0
 71
     1
 72
     1
  1
www.joinlox.com
  7
SLDTEXTSTYLE2
 73
     1
 44
1.0
  0
ENDBLK
  5
F8
330
F6
100
AcDbEntity
  8
0
100
AcDbBlockEnd
  0
BLOCK
  5
FE
330
FD
100
AcDbEntity
  8
0
100
AcDbBlockBegin
  2
SW_NOTE_2
 70
     0
 10
0.0
 20
0.0
 30
0.0
  3
SW_NOTE_2
  1

  0
LINE
  5
100
330
FD
100
AcDbEntity
  8
TITLE_BLOCK
 62
     0
100
AcDbLine
 10
31.7150167183
 20
-10.6440112577
 30
0.0
 11
30.3772304683
 21
-8.3762675077
 31
0.0
  0
LINE
  5
101
330
FD
100
AcDbEntity
  8
TITLE_BLOCK
 62
     0
100
AcDbLine
 10
33.0528029683
 20
-8.3762675077
 30
0.0
 11
30.3772304683
 21
-8.3762675077
 31
0.0
  0
LINE
  5
102
330
FD
100
AcDbEntity
  8
TITLE_BLOCK
 62
     0
100
AcDbLine
 10
31.7150167183
 20
-10.6440112577
 30
0.0
 11
34.3905892183
 21
-6.1085237577
 31
0.0
  0
MTEXT
  5
103
330
FD
100
AcDbEntity
  8
TITLE_BLOCK
 62
     0
100
AcDbMText
 10
0.0
 20
2.7285267159
 30
0.0
 40
2.1166666667
 41
0.0
 46
0.0
 71
     1
 72
     1
  1
\LUNLESS OTHERWISE STATED
  7
SLDTEXTSTYLE1
 73
     1
 44
1.0
  0
MTEXT
  5
104
330
FD
100
AcDbEntity
  8
TITLE_BLOCK
 62
     0
100
AcDbMText
 10
0.0
 20
-0.0936954723
 30
0.0
 40
2.1166666667
 41
0.0
 46
0.0
 71
     1
 72
     1
  1
ALL DIMENSIONS IN MILLIMETRES
  7
SLDTEXTSTYLE1
 73
     1
 44
1.0
  0
MTEXT
  5
105
330
FD
100
AcDbEntity
  8
TITLE_BLOCK
 62
     0
100
AcDbMText
 10
0.0
 20
-2.9159176604
 30
0.0
 40
2.1166666667
 41
0.0
 46
0.0
 71
     1
 72
     1
  1
REMOVE ALL BURRS AND SHARP EDGES
  7
SLDTEXTSTYLE1
 73
     1
 44
1.0
  0
MTEXT
  5
106
330
FD
100
AcDbEntity
  8
TITLE_BLOCK
 62
     0
100
AcDbMText
 10
0.0
 20
-8.5387253177
 30
0.0
 40
2.1166666667
 41
0.0
 46
0.0
 71
     1
 72
     1
  1
SURFACE ROUGHNESS 
  7
SLDTEXTSTYLE1
 73
     1
 44
1.0
  0
MTEXT
  5
107
330
FD
100
AcDbEntity
  8
TITLE_BLOCK
 62
     0
100
AcDbMText
 10
30.1208527319
 20
-6.32987255
 30
0.0
 40
1.5875
 41
0.0
 46
0.0
 71
     1
 72
     1
  1
3.2
  7
SLDTEXTSTYLE1
 73
     1
 44
1.0
  0
MTEXT
  5
108
330
FD
100
AcDbEntity
  8
TITLE_BLOCK
 62
     0
100
AcDbMText
 10
34.6022546291
 20
-8.5387253177
 30
0.0
 40
2.1166666667
 41
0.0
 46
0.0
 71
     1
 72
     1
  1
UNLESS STATED
  7
SLDTEXTSTYLE1
 73
     1
 44
1.0
  0
MTEXT
  5
109
330
FD
100
AcDbEntity
  8
TITLE_BLOCK
 62
     0
100
AcDbMText
 10
0.0
 20
-14.1831699268
 30
0.0
 40
2.1166666667
 41
0.0
 46
0.0
 71
     1
 72
     1
  1
GENERAL TOLERANCES:
  7
SLDTEXTSTYLE1
 73
     1
 44
1.0
  0
ENDBLK
  5
FF
330
FD
100
AcDbEntity
  8
0
100
AcDbBlockEnd
  0
BLOCK
  5
10F
330
10E
100
AcDbEntity
  8
0
100
AcDbBlockBegin
  2
SW_NOTE_3
 70
     0
 10
0.0
 20
0.0
 30
0.0
  3
SW_NOTE_3
  1

  0
MTEXT
  5
111
330
10E
100
AcDbEntity
  8
TITLE_BLOCK
 62
     0
100
AcDbMText
 10
0.0
 20
5.4570534317
 30
0.0
 40
4.2333333333
 41
0.0
 46
0.0
 71
     1
 72
     1
  1
If in 
  7
SLDTEXTSTYLE1
 73
     1
 44
1.0
  0
MTEXT
  5
112
330
10E
100
AcDbEntity
  8
TITLE_BLOCK
 62
     0
100
AcDbMText
 10
10.7401236892
 20
5.4570534317
 30
0.0
 40
4.2333333333
 41
0.0
 46
0.0
 71
     1
 72
     1
  1
DOUBT
  7
SLDTEXTSTYLE1
 73
     1
 44
1.0
  0
MTEXT
  5
113
330
10E
100
AcDbEntity
  8
TITLE_BLOCK
 62
     0
100
AcDbMText
 10
28.692593798
 20
5.4570534317
 30
0.0
 40
4.2333333333
 41
0.0
 46
0.0
 71
     1
 72
     1
  1
 ASK.
  7
SLDTEXTSTYLE1
 73
     1
 44
1.0
  0
MTEXT
  5
114
330
10E
100
AcDbEntity
  8
TITLE_BLOCK
 62
     0
100
AcDbMText
 10
-17.2155573964
 20
-0.1873909445
 30
0.0
 40
4.2333333333
 41
0.0
 46
0.0
 71
     1
 72
     1
  1
Not for manufacturer.
  7
SLDTEXTSTYLE1
 73
     1
 44
1.0
  0
ENDBLK
  5
110
330
10E
100
AcDbEntity
  8
0
100
AcDbBlockEnd
  0
BLOCK
  5
11F
330
11E
100
AcDbEntity
  8
0
100
AcDbBlockBegin
  2
SW_NOTE_4
 70
     0
 10
0.0
 20
0.0
 30
0.0
  3
SW_NOTE_4
  1

  0
MTEXT
  5
121
330
11E
100
AcDbEntity
  8
TITLE_BLOCK
 62
     0
100
AcDbMText
 10
0.0
 20
2.7285267159
 30
0.0
 40
2.1166666667
 41
0.0
 46
0.0
 71
     1
 72
     1
  1
ANGULAR:
  7
SLDTEXTSTYLE1
 73
     1
 44
1.0
  0
MTEXT
  5
122
330
11E
100
AcDbEntity
  8
TITLE_BLOCK
 62
     0
100
AcDbMText
 10
0.0
 20
-0.0936957051
 30
0.0
 40
2.1166666667
 41
0.0
 46
0.0
 71
     1
 72
     1
  1
0 = 
  7
SLDTEXTSTYLE0
 73
     1
 44
1.0
  0
MTEXT
  5
123
330
11E
100
AcDbEntity
  8
TITLE_BLOCK
 62
     0
100
AcDbMText
 10
4.7718095593
 20
-0.0936955887
 30
0.0
 40
2.1166666667
 41
0.0
 46
0.0
 71
     1
 72
     1
  1
%%p
  7
SLDTEXTSTYLE1
 73
     1
 44
1.0
  0
MTEXT
  5
124
330
11E
100
AcDbEntity
  8
TITLE_BLOCK
 62
     0
100
AcDbMText
 10
6.7896982655
 20
-0.0936957051
 30
0.0
 40
2.1166666667
 41
0.0
 46
0.0
 71
     1
 72
     1
  1
1.0
  7
SLDTEXTSTYLE1
 73
     1
 44
1.0
  0
MTEXT
  5
125
330
11E
100
AcDbEntity
  8
TITLE_BLOCK
 62
     0
100
AcDbMText
 10
0.0
 20
-2.915918126
 30
0.0
 40
2.1166666667
 41
0.0
 46
0.0
 71
     1
 72
     1
  1
0.0 = 
  7
SLDTEXTSTYLE1
 73
     1
 44
1.0
  0
MTEXT
  5
126
330
11E
100
AcDbEntity
  8
TITLE_BLOCK
 62
     0
100
AcDbMText
 10
7.0384070277
 20
-2.9159180096
 30
0.0
 40
2.1166666667
 41
0.0
 46
0.0
 71
     1
 72
     1
  1
%%p
  7
SLDTEXTSTYLE1
 73
     1
 44
1.0
  0
MTEXT
  5
127
330
11E
100
AcDbEntity
  8
TITLE_BLOCK
 62
     0
100
AcDbMText
 10
9.0562961996
 20
-2.915918126
 30
0.0
 40
2.1166666667
 41
0.0
 46
0.0
 71
     1
 72
     1
  1
0.1
  7
SLDTEXTSTYLE1
 73
     1
 44
1.0
  0
MTEXT
  5
128
330
11E
100
AcDbEntity
  8
TITLE_BLOCK
 62
     0
100
AcDbMText
 10
0.0
 20
-5.738140547
 30
0.0
 40
2.1166666667
 41
0.0
 46
0.0
 71
     1
 72
     1
  1
0.00 = 
  7
SLDTEXTSTYLE1
 73
     1
 44
1.0
  0
MTEXT
  5
129
330
11E
100
AcDbEntity
  8
TITLE_BLOCK
 62
     0
100
AcDbMText
 10
8.5803400725
 20
-5.7381404306
 30
0.0
 40
2.1166666667
 41
0.0
 46
0.0
 71
     1
 72
     1
  1
%%p
  7
SLDTEXTSTYLE1
 73
     1
 44
1.0
  0
MTEXT
  5
12A
330
11E
100
AcDbEntity
  8
TITLE_BLOCK
 62
     0
100
AcDbMText
 10
10.598228313
 20
-5.738140547
 30
0.0
 40
2.1166666667
 41
0.0
 46
0.0
 71
     1
 72
     1
  1
0.05
  7
SLDTEXTSTYLE1
 73
     1
 44
1.0
  0
ENDBLK
  5
120
330
11E
100
AcDbEntity
  8
0
100
AcDbBlockEnd
  0
BLOCK
  5
12E
330
12D
100
AcDbEntity
  8
0
100
AcDbBlockBegin
  2
SW_NOTE_5
 70
     0
 10
0.0
 20
0.0
 30
0.0
  3
SW_NOTE_5
  1

  0
MTEXT
  5
130
330
12D
100
AcDbEntity
  8
TITLE_BLOCK
 62
     0
100
AcDbMText
 10
0.0
 20
2.7285267159
 30
0.0
 40
2.1166666667
 41
0.0
 46
0.0
 71
     1
 72
     1
  1
LINEAR:
  7
SLDTEXTSTYLE1
 73
     1
 44
1.0
  0
MTEXT
  5
131
330
12D
100
AcDbEntity
  8
TITLE_BLOCK
 62
     0
100
AcDbMText
 10
0.0
 20
-0.0936957051
 30
0.0
 40
2.1166666667
 41
0.0
 46
0.0
 71
     1
 72
     1
  1
0 = 
  7
SLDTEXTSTYLE0
 73
     1
 44
1.0
  0
MTEXT
  5
132
330
12D
100
AcDbEntity
  8
TITLE_BLOCK
 62
     0
100
AcDbMText
 10
4.7718095593
 20
-0.0936955887
 30
0.0
 40
2.1166666667
 41
0.0
 46
0.0
 71
     1
 72
     1
  1
%%p
  7
SLDTEXTSTYLE1
 73
     1
 44
1.0
  0
MTEXT
  5
133
330
12D
100
AcDbEntity
  8
TITLE_BLOCK
 62
     0
100
AcDbMText
 10
6.7896982655
 20
-0.0936957051
 30
0.0
 40
2.1166666667
 41
0.0
 46
0.0
 71
     1
 72
     1
  1
1.0
  7
SLDTEXTSTYLE1
 73
     1
 44
1.0
  0
MTEXT
  5
134
330
12D
100
AcDbEntity
  8
TITLE_BLOCK
 62
     0
100
AcDbMText
 10
0.0
 20
-2.915918126
 30
0.0
 40
2.1166666667
 41
0.0
 46
0.0
 71
     1
 72
     1
  1
0.0 = 
  7
SLDTEXTSTYLE1
 73
     1
 44
1.0
  0
MTEXT
  5
135
330
12D
100
AcDbEntity
  8
TITLE_BLOCK
 62
     0
100
AcDbMText
 10
7.0384070277
 20
-2.9159180096
 30
0.0
 40
2.1166666667
 41
0.0
 46
0.0
 71
     1
 72
     1
  1
%%p
  7
SLDTEXTSTYLE1
 73
     1
 44
1.0
  0
MTEXT
  5
136
330
12D
100
AcDbEntity
  8
TITLE_BLOCK
 62
     0
100
AcDbMText
 10
9.0562961996
 20
-2.915918126
 30
0.0
 40
2.1166666667
 41
0.0
 46
0.0
 71
     1
 72
     1
  1
0.2
  7
SLDTEXTSTYLE1
 73
     1
 44
1.0
  0
MTEXT
  5
137
330
12D
100
AcDbEntity
  8
TITLE_BLOCK
 62
     0
100
AcDbMText
 10
0.0
 20
-5.738140547
 30
0.0
 40
2.1166666667
 41
0.0
 46
0.0
 71
     1
 72
     1
  1
0.00 = 
  7
SLDTEXTSTYLE1
 73
     1
 44
1.0
  0
MTEXT
  5
138
330
12D
100
AcDbEntity
  8
TITLE_BLOCK
 62
     0
100
AcDbMText
 10
8.5803400725
 20
-5.7381404306
 30
0.0
 40
2.1166666667
 41
0.0
 46
0.0
 71
     1
 72
     1
  1
%%p
  7
SLDTEXTSTYLE1
 73
     1
 44
1.0
  0
MTEXT
  5
139
330
12D
100
AcDbEntity
  8
TITLE_BLOCK
 62
     0
100
AcDbMText
 10
10.598228313
 20
-5.738140547
 30
0.0
 40
2.1166666667
 41
0.0
 46
0.0
 71
     1
 72
     1
  1
0.1
  7
SLDTEXTSTYLE1
 73
     1
 44
1.0
  0
ENDBLK
  5
12F
330
12D
100
AcDbEntity
  8
0
100
AcDbBlockEnd
  0
BLOCK
  5
141
330
140
100
AcDbEntity
  8
0
100
AcDbBlockBegin
  2
SW_TABLEANNOTATION_0
 70
     0
 10
0.0
 20
0.0
 30
0.0
  3
SW_TABLEANNOTATION_0
  1

  0
LINE
  5
143
330
140
100
AcDbEntity
  8
SLD-0
 62
     0
100
AcDbLine
 10
0.0
 20
0.0
 30
0.0
 11
0.0
 21
-10.0
 31
0.0
  0
LINE
  5
144
330
140
100
AcDbEntity
  8
SLD-0
 62
     0
100
AcDbLine
 10
0.0
 20
-10.0
 30
0.0
 11
148.1073946814
 21
-10.0
 31
0.0
  0
LINE
  5
145
330
140
100
AcDbEntity
  8
SLD-0
 62
     0
100
AcDbLine
 10
148.1073946814
 20
-10.0
 30
0.0
 11
148.1073946814
 21
0.0
 31
0.0
  0
LINE
  5
146
330
140
100
AcDbEntity
  8
SLD-0
 62
     0
100
AcDbLine
 10
148.1073946814
 20
0.0
 30
0.0
 11
0.0
 21
0.0
 31
0.0
  0
LINE
  5
147
330
140
100
AcDbEntity
  8
SLD-0
 62
     0
100
AcDbLine
 10
10.0
 20
0.0
 30
0.0
 11
10.0
 21
-5.0
 31
0.0
  0
LINE
  5
148
330
140
100
AcDbEntity
  8
SLD-0
 62
     0
100
AcDbLine
 10
93.8136084711
 20
0.0
 30
0.0
 11
93.8136084711
 21
-5.0
 31
0.0
  0
LINE
  5
149
330
140
100
AcDbEntity
  8
SLD-0
 62
     0
100
AcDbLine
 10
112.1073946814
 20
0.0
 30
0.0
 11
112.1073946814
 21
-5.0
 31
0.0
  0
LINE
  5
14A
330
140
100
AcDbEntity
  8
SLD-0
 62
     0
100
AcDbLine
 10
124.1073946814
 20
0.0
 30
0.0
 11
124.1073946814
 21
-5.0
 31
0.0
  0
LINE
  5
14B
330
140
100
AcDbEntity
  8
SLD-0
 62
     0
100
AcDbLine
 10
136.1073946814
 20
0.0
 30
0.0
 11
136.1073946814
 21
-5.0
 31
0.0
  0
LINE
  5
14C
330
140
100
AcDbEntity
  8
SLD-0
 62
     0
100
AcDbLine
 10
0.0
 20
-5.0
 30
0.0
 11
148.1073946814
 21
-5.0
 31
0.0
  0
MTEXT
  5
14D
330
140
100
AcDbEntity
  8
SLD-0
 62
     0
100
AcDbMText
 10
2.0053085126
 20
-1.4492568552
 30
0.0
 40
2.1166666667
 41
0.0
 46
0.0
 71
     1
 72
     1
  1
REV.
  7
SLDTEXTSTYLE1
 73
     1
 44
1.0
  0
MTEXT
  5
14E
330
140
100
AcDbEntity
  8
SLD-0
 62
     0
100
AcDbMText
 10
43.046202192
 20
-1.4492568552
 30
0.0
 40
2.1166666667
 41
0.0
 46
0.0
 71
     1
 72
     1
  1
DESCRIPTION
  7
SLDTEXTSTYLE1
 73
     1
 44
1.0
  0
MTEXT
  5
14F
330
140
100
AcDbEntity
  8
SLD-0
 62
     0
100
AcDbMText
 10
99.5071991463
 20
-1.4492568552
 30
0.0
 40
2.1166666667
 41
0.0
 46
0.0
 71
     1
 72
     1
  1
DATE
  7
SLDTEXTSTYLE1
 73
     1
 44
1.0
  0
MTEXT
  5
150
330
140
100
AcDbEntity
  8
SLD-0
 62
     0
100
AcDbMText
 10
115.1558206353
 20
-1.4492568552
 30
0.0
 40
2.1166666667
 41
0.0
 46
0.0
 71
     1
 72
     1
  1
DRN
  7
SLDTEXTSTYLE1
 73
     1
 44
1.0
  0
MTEXT
  5
151
330
140
100
AcDbEntity
  8
SLD-0
 62
     0
100
AcDbMText
 10
127.163660043
 20
-1.4492568552
 30
0.0
 40
2.1166666667
 41
0.0
 46
0.0
 71
     1
 72
     1
  1
CHK
  7
SLDTEXTSTYLE1
 73
     1
 44
1.0
  0
MTEXT
  5
152
330
140
100
AcDbEntity
  8
SLD-0
 62
     0
100
AcDbMText
 10
138.536499505
 20
-1.4492568552
 30
0.0
 40
2.1166666667
 41
0.0
 46
0.0
 71
     1
 72
     1
  1
APPR
  7
SLDTEXTSTYLE1
 73
     1
 44
1.0
  0
MTEXT
  5
153
330
140
100
AcDbEntity
  8
SLD-0
 62
     0
100
AcDbMText
 10
67.1314131995
 20
-6.4492568552
 30
0.0
 40
2.1166666667
 41
0.0
 46
0.0
 71
     1
 72
     1
  1
REVISIONS
  7
SLDTEXTSTYLE1
 73
     1
 44
1.0
  0
ENDBLK
  5
142
330
140
100
AcDbEntity
  8
0
100
AcDbBlockEnd
  0
BLOCK
  5
876
330
875
100
AcDbEntity
  8
0
100
AcDbBlockBegin
  2
SW_CENTERMARKSYMBOL_0
 70
     0
 10
0.0
 20
0.0
 30
0.0
  3
SW_CENTERMARKSYMBOL_0
  1

  0
LINE
  5
878
330
875
100
AcDbEntity
  8
0
  6
Continuous
 62
     0
370
     0
100
AcDbLine
 10
0.0
 20
0.0
 30
0.0
 11
0.0
 21
2.5
 31
0.0
  0
LINE
  5
879
330
875
100
AcDbEntity
  8
0
  6
Continuous
 62
     0
370
     0
100
AcDbLine
 10
0.0
 20
0.0
 30
0.0
 11
-2.5
 21
0.0
 31
0.0
  0
LINE
  5
87A
330
875
100
AcDbEntity
  8
0
  6
Continuous
 62
     0
370
     0
100
AcDbLine
 10
0.0
 20
0.0
 30
0.0
 11
0.0
 21
-2.5
 31
0.0
  0
LINE
  5
87B
330
875
100
AcDbEntity
  8
0
  6
Continuous
 62
     0
370
     0
100
AcDbLine
 10
0.0
 20
0.0
 30
0.0
 11
2.5
 21
0.0
 31
0.0
  0
LINE
  5
87C
330
875
100
AcDbEntity
  8
0
  6
Continuous
 62
     0
370
     0
100
AcDbLine
 10
0.0
 20
2.5
 30
0.0
 11
0.0
 21
4.5889072728
 31
0.0
  0
LINE
  5
87D
330
875
100
AcDbEntity
  8
0
  6
Continuous
 62
     0
370
     0
100
AcDbLine
 10
-2.5
 20
0.0
 30
0.0
 11
-4.5889072728
 21
0.0
 31
0.0
  0
LINE
  5
87E
330
875
100
AcDbEntity
  8
0
  6
Continuous
 62
     0
370
     0
100
AcDbLine
 10
0.0
 20
-2.5
 30
0.0
 11
0.0
 21
-4.5889072728
 31
0.0
  0
LINE
  5
87F
330
875
100
AcDbEntity
  8
0
  6
Continuous
 62
     0
370
     0
100
AcDbLine
 10
2.5
 20
0.0
 30
0.0
 11
4.5889072728
 21
0.0
 31
0.0
  0
ENDBLK
  5
877
330
875
100
AcDbEntity
  8
0
100
AcDbBlockEnd
  0
BLOCK
  5
882
330
881
100
AcDbEntity
  8
0
100
AcDbBlockBegin
  2
SW_CENTERMARKSYMBOL_1
 70
     0
 10
0.0
 20
0.0
 30
0.0
  3
SW_CENTERMARKSYMBOL_1
  1

  0
LINE
  5
884
330
881
100
AcDbEntity
  8
0
  6
Continuous
 62
     0
370
     0
100
AcDbLine
 10
0.0
 20
0.0
 30
0.0
 11
0.0
 21
2.5
 31
0.0
  0
LINE
  5
885
330
881
100
AcDbEntity
  8
0
  6
Continuous
 62
     0
370
     0
100
AcDbLine
 10
0.0
 20
0.0
 30
0.0
 11
-2.5
 21
0.0
 31
0.0
  0
LINE
  5
886
330
881
100
AcDbEntity
  8
0
  6
Continuous
 62
     0
370
     0
100
AcDbLine
 10
0.0
 20
0.0
 30
0.0
 11
0.0
 21
-2.5
 31
0.0
  0
LINE
  5
887
330
881
100
AcDbEntity
  8
0
  6
Continuous
 62
     0
370
     0
100
AcDbLine
 10
0.0
 20
0.0
 30
0.0
 11
2.5
 21
0.0
 31
0.0
  0
LINE
  5
888
330
881
100
AcDbEntity
  8
0
  6
Continuous
 62
     0
370
     0
100
AcDbLine
 10
0.0
 20
2.5
 30
0.0
 11
0.0
 21
4.5889072728
 31
0.0
  0
LINE
  5
889
330
881
100
AcDbEntity
  8
0
  6
Continuous
 62
     0
370
     0
100
AcDbLine
 10
-2.5
 20
0.0
 30
0.0
 11
-4.5889072728
 21
0.0
 31
0.0
  0
LINE
  5
88A
330
881
100
AcDbEntity
  8
0
  6
Continuous
 62
     0
370
     0
100
AcDbLine
 10
0.0
 20
-2.5
 30
0.0
 11
0.0
 21
-4.5889072728
 31
0.0
  0
LINE
  5
88B
330
881
100
AcDbEntity
  8
0
  6
Continuous
 62
     0
370
     0
100
AcDbLine
 10
2.5
 20
0.0
 30
0.0
 11
4.5889072728
 21
0.0
 31
0.0
  0
ENDBLK
  5
883
330
881
100
AcDbEntity
  8
0
100
AcDbBlockEnd
  0
BLOCK
  5
88E
330
88D
100
AcDbEntity
  8
0
100
AcDbBlockBegin
  2
SW_CENTERMARKSYMBOL_2
 70
     0
 10
0.0
 20
0.0
 30
0.0
  3
SW_CENTERMARKSYMBOL_2
  1

  0
LINE
  5
890
330
88D
100
AcDbEntity
  8
0
  6
Continuous
 62
     0
370
     0
100
AcDbLine
 10
0.0
 20
0.0
 30
0.0
 11
0.0
 21
2.5
 31
0.0
  0
LINE
  5
891
330
88D
100
AcDbEntity
  8
0
  6
Continuous
 62
     0
370
     0
100
AcDbLine
 10
0.0
 20
0.0
 30
0.0
 11
-2.5
 21
0.0
 31
0.0
  0
LINE
  5
892
330
88D
100
AcDbEntity
  8
0
  6
Continuous
 62
     0
370
     0
100
AcDbLine
 10
0.0
 20
0.0
 30
0.0
 11
0.0
 21
-2.5
 31
0.0
  0
LINE
  5
893
330
88D
100
AcDbEntity
  8
0
  6
Continuous
 62
     0
370
     0
100
AcDbLine
 10
0.0
 20
0.0
 30
0.0
 11
2.5
 21
0.0
 31
0.0
  0
LINE
  5
894
330
88D
100
AcDbEntity
  8
0
  6
Continuous
 62
     0
370
     0
100
AcDbLine
 10
0.0
 20
2.5
 30
0.0
 11
0.0
 21
4.5889072728
 31
0.0
  0
LINE
  5
895
330
88D
100
AcDbEntity
  8
0
  6
Continuous
 62
     0
370
     0
100
AcDbLine
 10
-2.5
 20
0.0
 30
0.0
 11
-4.5889072728
 21
0.0
 31
0.0
  0
LINE
  5
896
330
88D
100
AcDbEntity
  8
0
  6
Continuous
 62
     0
370
     0
100
AcDbLine
 10
0.0
 20
-2.5
 30
0.0
 11
0.0
 21
-4.5889072728
 31
0.0
  0
LINE
  5
897
330
88D
100
AcDbEntity
  8
0
  6
Continuous
 62
     0
370
     0
100
AcDbLine
 10
2.5
 20
0.0
 30
0.0
 11
4.5889072728
 21
0.0
 31
0.0
  0
ENDBLK
  5
88F
330
88D
100
AcDbEntity
  8
0
100
AcDbBlockEnd
  0
BLOCK
  5
902
330
901
100
AcDbEntity
  8
0
100
AcDbBlockBegin
  2
SW_HATCH_0
 70
     0
 10
0.0
 20
0.0
 30
0.0
  3
SW_HATCH_0
  1

  0
LINE
  5
904
330
901
100
AcDbEntity
  8
0
  6
Continuous
 62
     0
370
     0
100
AcDbLine
 10
0.0
 20
0.0
 30
0.0
 11
4.1802850831
 21
4.1802850831
 31
0.0
  0
LINE
  5
905
330
901
100
AcDbEntity
  8
0
  6
Continuous
 62
     0
370
     0
100
AcDbLine
 10
4.490128053
 20
0.0
 30
0.0
 11
7.950025201
 21
3.459897148
 31
0.0
  0
LINE
  5
906
330
901
100
AcDbEntity
  8
0
  6
Continuous
 62
     0
370
     0
100
AcDbLine
 10
-10.0848802643
 20
7.8756319675
 30
0.0
 11
-8.4605122318
 21
9.5
 31
0.0
  0
LINE
  5
907
330
901
100
AcDbEntity
  8
0
  6
Continuous
 62
     0
370
     0
100
AcDbLine
 10
8.9802561314
 20
0.0
 30
0.0
 11
12.4802561314
 21
3.5
 31
0.0
  0
LINE
  5
908
330
901
100
AcDbEntity
  8
0
  6
Continuous
 62
     0
370
     0
100
AcDbLine
 10
-8.384568682
 20
5.0858154968
 30
0.0
 11
-3.9703841788
 21
9.5
 31
0.0
  0
LINE
  5
909
330
901
100
AcDbEntity
  8
0
  6
Continuous
 62
     0
370
     0
100
AcDbLine
 10
13.4703841844
 20
0.0
 30
0.0
 11
14.5407683632
 21
1.0703841788
 31
0.0
  0
ENDBLK
  5
903
330
901
100
AcDbEntity
  8
0
100
AcDbBlockEnd
  0
BLOCK
  5
11B6
330
11B5
100
AcDbEntity
  8
0
100
AcDbBlockBegin
  2
SW_CENTERMARKSYMBOL_3
 70
     0
 10
0.0
 20
0.0
 30
0.0
  3
SW_CENTERMARKSYMBOL_3
  1

  0
LINE
  5
11B8
330
11B5
100
AcDbEntity
  8
0
  6
Continuous
 62
     0
370
     0
100
AcDbLine
 10
0.0
 20
0.0
 30
0.0
 11
0.0
 21
2.5
 31
0.0
  0
LINE
  5
11B9
330
11B5
100
AcDbEntity
  8
0
  6
Continuous
 62
     0
370
     0
100
AcDbLine
 10
0.0
 20
0.0
 30
0.0
 11
-2.5
 21
0.0
 31
0.0
  0
LINE
  5
11BA
330
11B5
100
AcDbEntity
  8
0
  6
Continuous
 62
     0
370
     0
100
AcDbLine
 10
0.0
 20
0.0
 30
0.0
 11
0.0
 21
-2.5
 31
0.0
  0
LINE
  5
11BB
330
11B5
100
AcDbEntity
  8
0
  6
Continuous
 62
     0
370
     0
100
AcDbLine
 10
0.0
 20
0.0
 30
0.0
 11
2.5
 21
0.0
 31
0.0
  0
LINE
  5
11BC
330
11B5
100
AcDbEntity
  8
0
  6
Continuous
 62
     0
370
     0
100
AcDbLine
 10
0.0
 20
2.5
 30
0.0
 11
0.0
 21
4.619185525
 31
0.0
  0
LINE
  5
11BD
330
11B5
100
AcDbEntity
  8
0
  6
Continuous
 62
     0
370
     0
100
AcDbLine
 10
-2.5
 20
0.0
 30
0.0
 11
-4.619185525
 21
0.0
 31
0.0
  0
LINE
  5
11BE
330
11B5
100
AcDbEntity
  8
0
  6
Continuous
 62
     0
370
     0
100
AcDbLine
 10
0.0
 20
-2.5
 30
0.0
 11
0.0
 21
-4.619185525
 31
0.0
  0
LINE
  5
11BF
330
11B5
100
AcDbEntity
  8
0
  6
Continuous
 62
     0
370
     0
100
AcDbLine
 10
2.5
 20
0.0
 30
0.0
 11
4.619185525
 21
0.0
 31
0.0
  0
ENDBLK
  5
11B7
330
11B5
100
AcDbEntity
  8
0
100
AcDbBlockEnd
  0
BLOCK
  5
13B8
330
13B7
100
AcDbEntity
  8
0
100
AcDbBlockBegin
  2
*D19
 70
     1
 10
0.0
 20
0.0
 30
0.0
  3
*D19
  1

  0
LINE
  5
13BA
330
13B7
100
AcDbEntity
  8
0
 62
     0
370
    -2
100
AcDbLine
 10
82.10538445066557
 20
172.8075917519944
 30
0.0
 11
97.2319992758678
 21
185.9569574081361
 31
0.0
  0
LINE
  5
13BB
330
13B7
100
AcDbEntity
  8
0
 62
     0
370
    -2
100
AcDbLine
 10
78.65067487045613
 20
170.8044585307886
 30
0.0
 11
78.65067487045613
 21
194.4249548020229
 31
0.0
  0
ARC
  5
13BC
330
13B7
100
AcDbEntity
  8
0
 62
     0
370
    -2
100
AcDbCircle
 10
78.65067487045613
 20
169.8044585307886
 30
0.0
 40
23.62049627123425
100
AcDbArc
 50
49.01613363625098
 51
50.4755283248148
  0
ARC
  5
13BD
330
13B7
100
AcDbEntity
  8
0
 62
     0
370
    -2
100
AcDbCircle
 10
78.65067487045613
 20
169.8044585307886
 30
0.0
 40
23.62049627123425
100
AcDbArc
 50
79.78743650934305
 51
81.9838663649119
  0
SOLID
  5
13BE
330
13B7
100
AcDbEntity
  8
0
 62
     0
100
AcDbTrace
 10
93.75300475608887
 20
187.246236998963
 30
0.0
 11
94.53118403493028
 21
188.0246354323459
 31
0.0
 12
96.47728969565836
 22
185.3008983791302
 32
0.0
 13
96.47728969565836
 23
185.3008983791302
 33
0.0
  0
SOLID
  5
13BF
330
13B7
100
AcDbEntity
  8
0
 62
     0
100
AcDbTrace
 10
81.98306550860947
 20
193.7431425021714
 30
0.0
 11
81.90613229578447
 21
192.6451678249244
 31
0.0
 12
78.65067487045613
 22
193.4249548020229
 32
0.0
 13
78.65067487045613
 23
193.4249548020229
 33
0.0
  0
MTEXT
  5
13C0
330
13B7
100
AcDbEntity
  8
0
 62
     0
100
AcDbMText
 10
88.44593506210575
 20
191.298195336595
 30
0.0
 40
3.5
 41
0.0
 46
0.0
 71
     5
 72
     1
  1
49%%d
 73
     1
 44
1.0
  0
POINT
  5
13C1
330
13B7
100
AcDbEntity
  8
Defpoints
 62
     0
100
AcDbPoint
 10
91.39985327372702
 20
189.6887813540824
 30
0.0
  0
POINT
  5
13C2
330
13B7
100
AcDbEntity
  8
Defpoints
 62
     0
100
AcDbPoint
 10
81.35067487045612
 20
172.1515327229886
 30
0.0
  0
POINT
  5
13C3
330
13B7
100
AcDbEntity
  8
Defpoints
 62
     0
100
AcDbPoint
 10
78.65067487045613
 20
169.8044585307886
 30
0.0
  0
POINT
  5
13C4
330
13B7
100
AcDbEntity
  8
Defpoints
 62
     0
100
AcDbPoint
 10
78.65067487045613
 20
165.1515327229886
 30
0.0
  0
POINT
  5
13C5
330
13B7
100
AcDbEntity
  8
Defpoints
 62
     0
100
AcDbPoint
 10
78.65067487045613
 20
169.8044585307886
 30
0.0
  0
ENDBLK
  5
13B9
330
13B7
100
AcDbEntity
  8
0
100
AcDbBlockEnd
  0
BLOCK
  5
13CB
330
13CA
100
AcDbEntity
  8
0
100
AcDbBlockBegin
  2
*D20
 70
     1
 10
0.0
 20
0.0
 30
0.0
  3
*D20
  1

  0
LINE
  5
13CD
330
13CA
100
AcDbEntity
  8
0
 62
     0
370
    -2
100
AcDbLine
 10
63.05067487045611
 20
164.1515327229886
 30
0.0
 11
63.05067487045611
 21
150.6837726557118
 31
0.0
  0
LINE
  5
13CE
330
13CA
100
AcDbEntity
  8
0
 62
     0
370
    -2
100
AcDbLine
 10
78.65067487045613
 20
164.1515327229886
 30
0.0
 11
78.65067487045613
 21
150.6837726557118
 31
0.0
  0
LINE
  5
13CF
330
13CA
100
AcDbEntity
  8
0
 62
     0
370
    -2
100
AcDbLine
 10
66.35267487045611
 20
151.6837726557118
 30
0.0
 11
75.34867487045612
 21
151.6837726557118
 31
0.0
  0
LINE
  5
13D0
330
13CA
100
AcDbEntity
  8
0
 62
     0
370
    -2
100
AcDbLine
 10
75.34867487045612
 20
151.6837726557118
 30
0.0
 11
66.35267487045611
 21
151.6837726557118
 31
0.0
  0
SOLID
  5
13D1
330
13CA
100
AcDbEntity
  8
0
 62
     0
100
AcDbTrace
 10
66.35267487045611
 20
152.2341059890451
 30
0.0
 11
66.35267487045611
 21
151.1334393223785
 31
0.0
 12
63.05067487045611
 22
151.6837726557118
 32
0.0
 13
63.05067487045611
 23
151.6837726557118
 33
0.0
  0
SOLID
  5
13D2
330
13CA
100
AcDbEntity
  8
0
 62
     0
100
AcDbTrace
 10
75.34867487045612
 20
151.1334393223785
 30
0.0
 11
75.34867487045612
 21
152.2341059890451
 31
0.0
 12
78.65067487045613
 22
151.6837726557118
 32
0.0
 13
78.65067487045613
 23
151.6837726557118
 33
0.0
  0
MTEXT
  5
13D3
330
13CA
100
AcDbEntity
  8
0
 62
     0
100
AcDbMText
 10
70.85067487045612
 20
154.9577726557118
 30
0.0
 40
3.5
 41
0.0
 46
0.0
 71
     5
 72
     1
  1
7.8
 73
     1
 44
1.0
  0
POINT
  5
13D4
330
13CA
100
AcDbEntity
  8
Defpoints
 62
     0
100
AcDbPoint
 10
63.05067487045611
 20
165.1515327229886
 30
0.0
  0
POINT
  5
13D5
330
13CA
100
AcDbEntity
  8
Defpoints
 62
     0
100
AcDbPoint
 10
78.65067487045613
 20
165.1515327229886
 30
0.0
  0
POINT
  5
13D6
330
13CA
100
AcDbEntity
  8
Defpoints
 62
     0
100
AcDbPoint
 10
78.65067487045613
 20
151.6837726557118
 30
0.0
  0
ENDBLK
  5
13CC
330
13CA
100
AcDbEntity
  8
0
100
AcDbBlockEnd
  0
BLOCK
  5
1408
330
1407
100
AcDbEntity
  8
0
100
AcDbBlockBegin
  2
*D22
 70
     1
 10
0.0
 20
0.0
 30
0.0
  3
*D22
  1

  0
LINE
  5
140A
330
1407
100
AcDbEntity
  8
0
 62
     0
370
    -2
100
AcDbLine
 10
53.72340628765612
 20
172.1515327229886
 30
0.0
 11
40.02777073212431
 21
172.1515327229886
 31
0.0
  0
LINE
  5
140B
330
1407
100
AcDbEntity
  8
0
 62
     0
370
    -2
100
AcDbLine
 10
53.7234062876561
 20
165.1515327229886
 30
0.0
 11
40.02777073212431
 21
165.1515327229886
 31
0.0
  0
LINE
  5
140C
330
1407
100
AcDbEntity
  8
0
 62
     0
370
    -2
100
AcDbLine
 10
41.02777073212431
 20
172.1515327229886
 30
0.0
 11
41.02777073212431
 21
171.9255327229886
 31
0.0
  0
LINE
  5
140D
330
1407
100
AcDbEntity
  8
0
 62
     0
370
    -2
100
AcDbLine
 10
41.02777073212431
 20
165.1515327229886
 30
0.0
 11
41.02777073212431
 21
165.3775327229886
 31
0.0
  0
LINE
  5
140E
330
1407
100
AcDbEntity
  8
0
 62
     0
370
    -2
100
AcDbLine
 10
41.02777073212431
 20
175.4535327229886
 30
0.0
 11
41.02777073212431
 21
178.7555327229886
 31
0.0
  0
LINE
  5
140F
330
1407
100
AcDbEntity
  8
0
 62
     0
370
    -2
100
AcDbLine
 10
41.02777073212431
 20
161.8495327229886
 30
0.0
 11
41.02777073212431
 21
158.5475327229886
 31
0.0
  0
SOLID
  5
1410
330
1407
100
AcDbEntity
  8
0
 62
     0
100
AcDbTrace
 10
40.47743739879098
 20
175.4535327229886
 30
0.0
 11
41.57810406545764
 21
175.4535327229886
 31
0.0
 12
41.02777073212431
 22
172.1515327229886
 32
0.0
 13
41.02777073212431
 23
172.1515327229886
 33
0.0
  0
SOLID
  5
1411
330
1407
100
AcDbEntity
  8
0
 62
     0
100
AcDbTrace
 10
41.57810406545764
 20
161.8495327229886
 30
0.0
 11
40.47743739879098
 21
161.8495327229886
 31
0.0
 12
41.02777073212431
 22
165.1515327229886
 32
0.0
 13
41.02777073212431
 23
165.1515327229886
 33
0.0
  0
MTEXT
  5
1412
330
1407
100
AcDbEntity
  8
0
 62
     0
100
AcDbMText
 10
41.02777073212431
 20
168.6515327229886
 30
0.0
 40
3.5
 41
0.0
 46
0.0
 71
     5
 72
     1
  1
3.5
 73
     1
 44
1.0
  0
POINT
  5
1413
330
1407
100
AcDbEntity
  8
Defpoints
 62
     0
100
AcDbPoint
 10
54.72340628765612
 20
172.1515327229886
 30
0.0
  0
POINT
  5
1414
330
1407
100
AcDbEntity
  8
Defpoints
 62
     0
100
AcDbPoint
 10
54.7234062876561
 20
165.1515327229886
 30
0.0
  0
POINT
  5
1415
330
1407
100
AcDbEntity
  8
Defpoints
 62
     0
100
AcDbPoint
 10
41.02777073212431
 20
165.1515327229886
 30
0.0
  0
ENDBLK
  5
1409
330
1407
100
AcDbEntity
  8
0
100
AcDbBlockEnd
  0
BLOCK
  5
1479
330
1478
100
AcDbEntity
  8
0
100
AcDbBlockBegin
  2
*D25
 70
     1
 10
0.0
 20
0.0
 30
0.0
  3
*D25
  1

  0
LINE
  5
147B
330
1478
100
AcDbEntity
  8
0
 62
     0
370
    -2
100
AcDbLine
 10
320.798992931221
 20
236.7196381369842
 30
0.0
 11
320.798992931221
 21
256.8374992155694
 31
0.0
  0
LINE
  5
147C
330
1478
100
AcDbEntity
  8
0
 62
     0
370
    -2
100
AcDbLine
 10
333.723992931221
 20
236.7196381369842
 30
0.0
 11
333.723992931221
 21
256.8374992155694
 31
0.0
  0
LINE
  5
147D
330
1478
100
AcDbEntity
  8
0
 62
     0
370
    -2
100
AcDbLine
 10
333.723992931221
 20
255.8374992155694
 30
0.0
 11
361.820710702689
 21
255.8374992155694
 31
0.0
  0
LINE
  5
147E
330
1478
100
AcDbEntity
  8
0
 62
     0
370
    -2
100
AcDbLine
 10
324.100992931221
 20
255.8374992155694
 30
0.0
 11
330.421992931221
 21
255.8374992155694
 31
0.0
  0
LINE
  5
147F
330
1478
100
AcDbEntity
  8
0
 62
     0
370
    -2
100
AcDbLine
 10
330.421992931221
 20
255.8374992155694
 30
0.0
 11
324.100992931221
 21
255.8374992155694
 31
0.0
  0
SOLID
  5
1480
330
1478
100
AcDbEntity
  8
0
 62
     0
100
AcDbTrace
 10
324.100992931221
 20
256.3878325489027
 30
0.0
 11
324.100992931221
 21
255.2871658822361
 31
0.0
 12
320.798992931221
 22
255.8374992155694
 32
0.0
 13
320.798992931221
 23
255.8374992155694
 33
0.0
  0
SOLID
  5
1481
330
1478
100
AcDbEntity
  8
0
 62
     0
100
AcDbTrace
 10
330.421992931221
 20
255.2871658822361
 30
0.0
 11
330.421992931221
 21
256.3878325489027
 31
0.0
 12
333.723992931221
 22
255.8374992155694
 32
0.0
 13
333.723992931221
 23
255.8374992155694
 33
0.0
  0
MTEXT
  5
1482
330
1478
100
AcDbEntity
  8
0
 62
     0
100
AcDbMText
 10
357.9633773693557
 20
259.1114992155694
 30
0.0
 40
3.5
 41
0.0
 46
0.0
 71
     5
 72
     1
  1
13
 73
     1
 44
1.0
  0
POINT
  5
1483
330
1478
100
AcDbEntity
  8
Defpoints
 62
     0
100
AcDbPoint
 10
320.798992931221
 20
235.7196381369842
 30
0.0
  0
POINT
  5
1484
330
1478
100
AcDbEntity
  8
Defpoints
 62
     0
100
AcDbPoint
 10
333.723992931221
 20
235.7196381369842
 30
0.0
  0
POINT
  5
1485
330
1478
100
AcDbEntity
  8
Defpoints
 62
     0
100
AcDbPoint
 10
333.723992931221
 20
255.8374992155694
 30
0.0
  0
ENDBLK
  5
147A
330
1478
100
AcDbEntity
  8
0
100
AcDbBlockEnd
  0
BLOCK
  5
148D
330
148C
100
AcDbEntity
  8
0
100
AcDbBlockBegin
  2
*D26
 70
     1
 10
0.0
 20
0.0
 30
0.0
  3
*D26
  1

  0
LINE
  5
148F
330
148C
100
AcDbEntity
  8
0
 62
     0
370
    -2
100
AcDbLine
 10
207.0544200794527
 20
167.0019087263842
 30
0.0
 11
207.0544200794527
 21
248.6548605510167
 31
0.0
  0
LINE
  5
1490
330
148C
100
AcDbEntity
  8
0
 62
     0
370
    -2
100
AcDbLine
 10
175.3044200794527
 20
167.0019087263842
 30
0.0
 11
175.3044200794527
 21
248.6548605510167
 31
0.0
  0
LINE
  5
1491
330
148C
100
AcDbEntity
  8
0
 62
     0
370
    -2
100
AcDbLine
 10
203.7524200794527
 20
247.6548605510167
 30
0.0
 11
178.6064200794527
 21
247.6548605510167
 31
0.0
  0
LINE
  5
1492
330
148C
100
AcDbEntity
  8
0
 62
     0
370
    -2
100
AcDbLine
 10
178.6064200794527
 20
247.6548605510167
 30
0.0
 11
203.7524200794527
 21
247.6548605510167
 31
0.0
  0
SOLID
  5
1493
330
148C
100
AcDbEntity
  8
0
 62
     0
100
AcDbTrace
 10
203.7524200794527
 20
247.1045272176833
 30
0.0
 11
203.7524200794527
 21
248.20519388435
 31
0.0
 12
207.0544200794527
 22
247.6548605510167
 32
0.0
 13
207.0544200794527
 23
247.6548605510167
 33
0.0
  0
SOLID
  5
1494
330
148C
100
AcDbEntity
  8
0
 62
     0
100
AcDbTrace
 10
178.6064200794527
 20
248.20519388435
 30
0.0
 11
178.6064200794527
 21
247.1045272176833
 31
0.0
 12
175.3044200794527
 22
247.6548605510167
 32
0.0
 13
175.3044200794527
 23
247.6548605510167
 33
0.0
  0
MTEXT
  5
1495
330
148C
100
AcDbEntity
  8
0
 62
     0
100
AcDbMText
 10
191.1794200794527
 20
251.2205272176833
 30
0.0
 40
3.5
 41
0.0
 46
0.0
 71
     5
 72
     1
  1
31,75
 73
     1
 44
1.0
  0
POINT
  5
1496
330
148C
100
AcDbEntity
  8
Defpoints
 62
     0
100
AcDbPoint
 10
207.0544200794527
 20
166.0019087263842
 30
0.0
  0
POINT
  5
1497
330
148C
100
AcDbEntity
  8
Defpoints
 62
     0
100
AcDbPoint
 10
175.3044200794527
 20
166.0019087263842
 30
0.0
  0
POINT
  5
1498
330
148C
100
AcDbEntity
  8
Defpoints
 62
     0
100
AcDbPoint
 10
175.3044200794527
 20
247.6548605510167
 30
0.0
  0
ENDBLK
  5
148E
330
148C
100
AcDbEntity
  8
0
100
AcDbBlockEnd
  0
BLOCK
  5
149D
330
149C
100
AcDbEntity
  8
0
100
AcDbBlockBegin
  2
*D27
 70
     1
 10
0.0
 20
0.0
 30
0.0
  3
*D27
  1

  0
LINE
  5
149F
330
149C
100
AcDbEntity
  8
0
 62
     0
370
    -2
100
AcDbLine
 10
198.5544200794527
 20
197.2519087263842
 30
0.0
 11
198.5544200794527
 21
226.6229437067327
 31
0.0
  0
LINE
  5
14A0
330
149C
100
AcDbEntity
  8
0
 62
     0
370
    -2
100
AcDbLine
 10
207.0544200794527
 20
235.0019087263842
 30
0.0
 11
207.0544200794527
 21
224.6229437067327
 31
0.0
  0
LINE
  5
14A1
330
149C
100
AcDbEntity
  8
0
 62
     0
370
    -2
100
AcDbLine
 10
210.3564200794527
 20
225.6229437067327
 30
0.0
 11
227.2064200794527
 21
225.6229437067327
 31
0.0
  0
LINE
  5
14A2
330
149C
100
AcDbEntity
  8
0
 62
     0
370
    -2
100
AcDbLine
 10
198.5544200794527
 20
225.6229437067327
 30
0.0
 11
207.0544200794527
 21
225.6229437067327
 31
0.0
  0
LINE
  5
14A3
330
149C
100
AcDbEntity
  8
0
 62
     0
370
    -2
100
AcDbLine
 10
207.0544200794527
 20
225.6229437067327
 30
0.0
 11
198.5544200794527
 21
225.6229437067327
 31
0.0
  0
LINE
  5
14A4
330
149C
100
AcDbEntity
  8
0
 62
     0
370
    -2
100
AcDbLine
 10
195.2524200794527
 20
225.6229437067327
 30
0.0
 11
191.9504200794527
 21
225.6229437067327
 31
0.0
  0
SOLID
  5
14A5
330
149C
100
AcDbEntity
  8
0
 62
     0
100
AcDbTrace
 10
195.2524200794527
 20
225.0726103733994
 30
0.0
 11
195.2524200794527
 21
226.173277040066
 31
0.0
 12
198.5544200794527
 22
225.6229437067327
 32
0.0
 13
198.5544200794527
 23
225.6229437067327
 33
0.0
  0
SOLID
  5
14A6
330
149C
100
AcDbEntity
  8
0
 62
     0
100
AcDbTrace
 10
210.3564200794527
 20
226.173277040066
 30
0.0
 11
210.3564200794527
 21
225.0726103733994
 31
0.0
 12
207.0544200794527
 22
225.6229437067327
 32
0.0
 13
207.0544200794527
 23
225.6229437067327
 33
0.0
  0
MTEXT
  5
14A7
330
149C
100
AcDbEntity
  8
0
 62
     0
100
AcDbMText
 10
220.4324200794527
 20
229.1886103733993
 30
0.0
 40
3.5
 41
0.0
 46
0.0
 71
     5
 72
     1
  1
8,50
 73
     1
 44
1.0
  0
POINT
  5
14A8
330
149C
100
AcDbEntity
  8
Defpoints
 62
     0
100
AcDbPoint
 10
198.5544200794527
 20
196.2519087263842
 30
0.0
  0
POINT
  5
14A9
330
149C
100
AcDbEntity
  8
Defpoints
 62
     0
100
AcDbPoint
 10
207.0544200794527
 20
236.0019087263842
 30
0.0
  0
POINT
  5
14AA
330
149C
100
AcDbEntity
  8
Defpoints
 62
     0
100
AcDbPoint
 10
207.0544200794527
 20
225.6229437067327
 30
0.0
  0
ENDBLK
  5
149E
330
149C
100
AcDbEntity
  8
0
100
AcDbBlockEnd
  0
ENDSEC
  0
SECTION
  2
ENTITIES
  0
LINE
  5
42
330
1F
100
AcDbEntity
  8
TITLE_BLOCK
370
    30
100
AcDbLine
 10
153.1556881168
 20
47.2021256655
 30
0.0
 11
415.1556881168
 21
47.2021256655
 31
0.0
  0
LINE
  5
43
330
1F
100
AcDbEntity
  8
TITLE_BLOCK
 62
     7
100
AcDbLine
 10
309.3778215674
 20
11.1216675118
 30
0.0
 11
295.9689608911
 21
11.1216675118
 31
0.0
  0
LINE
  5
44
330
1F
100
AcDbEntity
  8
TITLE_BLOCK
 62
     7
370
    30
100
AcDbLine
 10
153.1556881168
 20
47.2021256655
 30
0.0
 11
153.1556881168
 21
5.2021256655
 31
0.0
  0
LINE
  5
45
330
1F
100
AcDbEntity
  8
TITLE_BLOCK
100
AcDbLine
 10
400.1556881168
 20
5.2021256655
 30
0.0
 11
400.1556881168
 21
17.2021256655
 31
0.0
  0
LINE
  5
46
330
1F
100
AcDbEntity
  8
TITLE_BLOCK
370
    30
100
AcDbLine
 10
415.1556881168
 20
292.2021256655
 30
0.0
 11
5.1556881168
 21
292.2021256655
 31
0.0
  0
LINE
  5
47
330
1F
100
AcDbEntity
  8
TITLE_BLOCK
370
    30
100
AcDbLine
 10
5.1556881168
 20
292.2021256655
 30
0.0
 11
5.1556881168
 21
5.2021256655
 31
0.0
  0
LINE
  5
48
330
1F
100
AcDbEntity
  8
TITLE_BLOCK
370
    30
100
AcDbLine
 10
5.1556881168
 20
5.2021256655
 30
0.0
 11
415.1556881168
 21
5.2021256655
 31
0.0
  0
LINE
  5
49
330
1F
100
AcDbEntity
  8
TITLE_BLOCK
370
    30
100
AcDbLine
 10
415.1556881168
 20
5.2021256655
 30
0.0
 11
415.1556881168
 21
292.2021256655
 31
0.0
  0
LINE
  5
4A
330
1F
100
AcDbEntity
  8
TITLE_BLOCK
100
AcDbLine
 10
343.1556881168
 20
5.2021256655
 30
0.0
 11
343.1556881168
 21
17.2021256655
 31
0.0
  0
LINE
  5
4B
330
1F
100
AcDbEntity
  8
TITLE_BLOCK
100
AcDbLine
 10
228.1556881168
 20
17.2021256655
 30
0.0
 11
228.1556881168
 21
47.2021256655
 31
0.0
  0
LINE
  5
4C
330
1F
100
AcDbEntity
  8
TITLE_BLOCK
100
AcDbLine
 10
322.1556881168
 20
17.2021256655
 30
0.0
 11
322.1556881168
 21
47.2021256655
 31
0.0
  0
LINE
  5
4D
330
1F
100
AcDbEntity
  8
SLD-0
 62
     7
100
AcDbLine
 10
211.7527938281
 20
17.2021256655
 30
0.0
 11
415.1556881168
 21
17.2021256655
 31
0.0
  0
LINE
  5
4E
330
1F
100
AcDbEntity
  8
TITLE_BLOCK
100
AcDbLine
 10
322.1556881168
 20
5.2021256655
 30
0.0
 11
322.1556881168
 21
17.2021256655
 31
0.0
  0
LINE
  5
4F
330
1F
100
AcDbEntity
  8
SLD-0
 62
     7
100
AcDbLine
 10
322.1556881168
 20
11.2021256655
 30
0.0
 11
343.1556881168
 21
11.2021256655
 31
0.0
  0
LINE
  5
50
330
1F
100
AcDbEntity
  8
TITLE_BLOCK
100
AcDbLine
 10
322.1556881168
 20
37.2021256655
 30
0.0
 11
415.1556881168
 21
37.2021256655
 31
0.0
  0
LINE
  5
51
330
1F
100
AcDbEntity
  8
TITLE_BLOCK
100
AcDbLine
 10
295.1556881168
 20
32.4021256655
 30
0.0
 11
295.1556881168
 21
5.2021256655
 31
0.0
  0
LINE
  5
52
330
1F
100
AcDbEntity
  8
TITLE_BLOCK
100
AcDbLine
 10
211.7527938281
 20
5.2021256655
 30
0.0
 11
211.7527938281
 21
47.2021256655
 31
0.0
  0
LINE
  5
53
330
1F
100
AcDbEntity
  8
TITLE_BLOCK
100
AcDbLine
 10
308.5692233271
 20
13.2855364279
 30
0.0
 11
308.5692233271
 21
9.1691859091
 31
0.0
  0
LINE
  5
54
330
1F
100
AcDbEntity
  8
TITLE_BLOCK
100
AcDbLine
 10
308.5692233271
 20
9.1691859091
 30
0.0
 11
302.8490760152
 21
10.3533894575
 31
0.0
  0
LINE
  5
55
330
1F
100
AcDbEntity
  8
TITLE_BLOCK
100
AcDbLine
 10
302.8490760152
 20
10.3533894575
 30
0.0
 11
302.8490760152
 21
12.1013328795
 31
0.0
  0
LINE
  5
56
330
1F
100
AcDbEntity
  8
TITLE_BLOCK
100
AcDbLine
 10
302.8490760152
 20
12.1013328795
 30
0.0
 11
308.5692233271
 21
13.2855364279
 31
0.0
  0
LINE
  5
57
330
1F
100
AcDbEntity
  8
TITLE_BLOCK
100
AcDbLine
 10
298.9091897476
 20
14.3426298
 30
0.0
 11
298.9091897476
 21
8.2015611228
 31
0.0
  0
LINE
  5
58
330
1F
100
AcDbEntity
  8
TITLE_BLOCK
100
AcDbLine
 10
273.1556881168
 20
47.2021256655
 30
0.0
 11
273.1556881168
 21
17.2021256655
 31
0.0
  0
LINE
  5
59
330
1F
100
AcDbEntity
  8
TITLE_BLOCK
100
AcDbLine
 10
310.1556881168
 20
17.2021256655
 30
0.0
 11
310.1556881168
 21
5.2021256655
 31
0.0
  0
LINE
  5
5A
330
1F
100
AcDbEntity
  8
0
  6
Continuous
 62
     7
370
     0
100
AcDbLine
 10
275.660957468
 20
41.4116909285
 30
0.0
 11
275.660957468
 21
43.4417925541
 31
0.0
  0
LINE
  5
5B
330
1F
100
AcDbEntity
  8
0
  6
Continuous
 62
     7
370
     0
100
AcDbLine
 10
277.8292670264
 20
37.5932079035
 30
0.0
 11
275.0651420264
 21
37.5932079035
 31
0.0
  0
LINE
  5
5C
330
1F
100
AcDbEntity
  8
0
  6
Continuous
 62
     7
370
     0
100
AcDbLine
 10
279.6759560773
 20
36.342478705
 30
0.0
 11
279.6759560773
 21
33.4296707178
 31
0.0
  0
LINE
  5
5D
330
1F
100
AcDbEntity
  8
0
  6
Continuous
 62
     7
370
     0
100
AcDbLine
 10
284.2184118314
 20
36.342478705
 30
0.0
 11
284.5289473921
 21
36.342478705
 31
0.0
  0
LINE
  5
5E
330
1F
100
AcDbEntity
  8
0
  6
Continuous
 62
     7
370
     0
100
AcDbLine
 10
280.4473400304
 20
35.529123974
 30
0.0
 11
280.6474256232
 21
35.529123974
 31
0.0
  0
LINE
  5
5F
330
1F
100
AcDbEntity
  8
0
  6
Continuous
 62
     7
370
     0
100
AcDbLine
 10
284.6059984847
 20
34.1708801045
 30
0.0
 11
284.6059984847
 21
35.5677478259
 31
0.0
  0
LINE
  5
60
330
1F
100
AcDbEntity
  8
0
  6
Continuous
 62
     7
370
     0
100
AcDbLine
 10
286.3296300593
 20
34.1708801045
 30
0.0
 11
286.7136180563
 21
33.4296707178
 31
0.0
  0
LINE
  5
61
330
1F
100
AcDbEntity
  8
0
  6
Continuous
 62
     7
370
     0
100
AcDbLine
 10
288.3519982221
 20
45.9146115563
 30
0.0
 11
288.3519982221
 21
43.2703304411
 31
0.0
  0
LINE
  5
62
330
1F
100
AcDbEntity
  8
0
  6
Continuous
 62
     7
370
     0
100
AcDbLine
 10
279.8578844668
 20
41.1990659285
 30
0.0
 11
275.873582468
 21
41.1990659285
 31
0.0
  0
LINE
  5
63
330
1F
100
AcDbEntity
  8
0
  6
Continuous
 62
     7
370
     0
100
AcDbLine
 10
280.9589532277
 20
33.4296707178
 30
0.0
 11
281.7462535663
 21
33.4296707178
 31
0.0
  0
LINE
  5
64
330
1F
100
AcDbEntity
  8
0
  6
Continuous
 62
     7
370
     0
100
AcDbLine
 10
285.1585626041
 20
33.4296707178
 30
0.0
 11
285.9560356116
 21
33.4296707178
 31
0.0
  0
LINE
  5
65
330
1F
100
AcDbEntity
  8
0
  6
Continuous
 62
     7
370
     0
100
AcDbLine
 10
286.7476902199
 20
34.8693139652
 30
0.0
 11
287.4536779469
 21
36.2699898408
 31
0.0
  0
LINE
  5
66
330
1F
100
AcDbEntity
  8
0
  6
Continuous
 62
     7
370
     0
100
AcDbLine
 10
288.1393732221
 20
43.0577054411
 30
0.0
 11
283.1671174586
 21
43.0577054411
 31
0.0
  0
LINE
  5
67
330
1F
100
AcDbEntity
  8
0
  6
Continuous
 62
     7
370
     0
100
AcDbLine
 10
275.4584137563
 20
34.1785540867
 30
0.0
 11
274.8817491271
 21
34.1785540867
 31
0.0
  0
LINE
  5
68
330
1F
100
AcDbEntity
  8
0
  6
Continuous
 62
     7
370
     0
100
AcDbLine
 10
277.3908095915
 20
36.342478705
 30
0.0
 11
277.7013451523
 21
36.342478705
 31
0.0
  0
LINE
  5
69
330
1F
100
AcDbEntity
  8
0
  6
Continuous
 62
     7
370
     0
100
AcDbLine
 10
281.8792693636
 20
36.342478705
 30
0.0
 11
281.8792693636
 21
34.2936861776
 31
0.0
  0
LINE
  5
6A
330
1F
100
AcDbEntity
  8
0
  6
Continuous
 62
     7
370
     0
100
AcDbLine
 10
286.3296300593
 20
35.6214805955
 30
0.0
 11
285.9936659301
 21
36.2699898408
 31
0.0
  0
LINE
  5
6B
330
1F
100
AcDbEntity
  8
0
  6
Continuous
 62
     7
370
     0
100
AcDbLine
 10
279.4774381482
 20
36.342478705
 30
0.0
 11
278.7230700176
 21
36.342478705
 31
0.0
  0
LINE
  5
6C
330
1F
100
AcDbEntity
  8
0
  6
Continuous
 62
     7
370
     0
100
AcDbLine
 10
277.3908095915
 20
33.4296707178
 30
0.0
 11
277.7013451523
 21
33.4296707178
 31
0.0
  0
LINE
  5
6D
330
1F
100
AcDbEntity
  8
0
  6
Continuous
 62
     7
370
     0
100
AcDbLine
 10
280.1443258358
 20
40.6915821273
 30
0.0
 11
283.2397027358
 21
42.4925354228
 31
0.0
  0
LINE
  5
6E
330
1F
100
AcDbEntity
  8
0
  6
Continuous
 62
     7
370
     0
100
AcDbLine
 10
277.7783962449
 20
34.1708801045
 30
0.0
 11
277.7783962449
 21
35.5677478259
 31
0.0
  0
LINE
  5
6F
330
1F
100
AcDbEntity
  8
0
  6
Continuous
 62
     7
370
     0
100
AcDbLine
 10
282.8530031312
 20
34.2184230075
 30
0.0
 11
283.2933252358
 21
34.2184230075
 31
0.0
  0
LINE
  5
70
330
1F
100
AcDbEntity
  8
0
  6
Continuous
 62
     7
370
     0
100
AcDbLine
 10
279.4774381482
 20
33.4296707178
 30
0.0
 11
279.4774381482
 21
36.342478705
 31
0.0
  0
LINE
  5
71
330
1F
100
AcDbEntity
  8
0
  6
Continuous
 62
     7
370
     0
100
AcDbLine
 10
284.1601091726
 20
34.1708801045
 30
0.0
 11
284.1601091726
 21
35.5677478259
 31
0.0
  0
LINE
  5
72
330
1F
100
AcDbEntity
  8
0
  6
Continuous
 62
     7
370
     0
100
AcDbLine
 10
276.4233351906
 20
34.1963360204
 30
0.0
 11
276.4233351906
 21
36.342478705
 31
0.0
  0
LINE
  5
73
330
1F
100
AcDbEntity
  8
0
  6
Continuous
 62
     7
370
     0
100
AcDbLine
 10
279.6759560773
 20
33.4296707178
 30
0.0
 11
280.4473400304
 21
33.4296707178
 31
0.0
  0
LINE
  5
74
330
1F
100
AcDbEntity
  8
0
  6
Continuous
 62
     7
370
     0
100
AcDbLine
 10
285.3794473921
 20
34.2801707177
 30
0.0
 11
285.3794473921
 21
35.491978705
 31
0.0
  0
LINE
  5
75
330
1F
100
AcDbEntity
  8
0
  6
Continuous
 62
     7
370
     0
100
AcDbLine
 10
284.2184118314
 20
33.4296707178
 30
0.0
 11
284.5289473921
 21
33.4296707178
 31
0.0
  0
LINE
  5
76
330
1F
100
AcDbEntity
  8
0
  6
Continuous
 62
     7
370
     0
100
AcDbLine
 10
285.1585626041
 20
36.2699898408
 30
0.0
 11
285.8841911965
 21
34.8693139652
 31
0.0
  0
LINE
  5
77
330
1F
100
AcDbEntity
  8
0
  6
Continuous
 62
     7
370
     0
100
AcDbLine
 10
286.7136180563
 20
33.4296707178
 30
0.0
 11
287.4935060945
 21
33.4296707178
 31
0.0
  0
LINE
  5
78
330
1F
100
AcDbEntity
  8
0
  6
Continuous
 62
     7
370
     0
100
AcDbLine
 10
276.4233351906
 20
36.342478705
 30
0.0
 11
275.6609615646
 21
36.342478705
 31
0.0
  0
LINE
  5
79
330
1F
100
AcDbEntity
  8
0
  6
Continuous
 62
     7
370
     0
100
AcDbLine
 10
287.5435577804
 20
42.3087535313
 30
0.0
 11
287.5435577804
 21
40.2786519057
 31
0.0
  0
LINE
  5
7A
330
1F
100
AcDbEntity
  8
0
  6
Continuous
 62
     7
370
     0
100
AcDbLine
 10
283.3466307817
 20
42.5213785313
 30
0.0
 11
287.3309327804
 21
42.5213785313
 31
0.0
  0
LINE
  5
7B
330
1F
100
AcDbEntity
  8
0
  6
Continuous
 62
     7
370
     0
100
AcDbLine
 10
281.7462535663
 20
33.4296707178
 30
0.0
 11
281.7462535663
 21
35.5315772663
 31
0.0
  0
LINE
  5
7C
330
1F
100
AcDbEntity
  8
0
  6
Continuous
 62
     7
370
     0
100
AcDbLine
 10
285.9560356116
 20
33.4296707178
 30
0.0
 11
286.3296300593
 21
34.1708801045
 31
0.0
  0
LINE
  5
7D
330
1F
100
AcDbEntity
  8
0
  6
Continuous
 62
     7
370
     0
100
AcDbLine
 10
287.4536779469
 20
36.2699898408
 30
0.0
 11
286.6565005195
 21
36.2699898408
 31
0.0
  0
LINE
  5
7E
330
1F
100
AcDbEntity
  8
0
  6
Continuous
 62
     7
370
     0
100
AcDbLine
 10
274.8817491271
 20
34.1785540867
 30
0.0
 11
274.8817491271
 21
33.4296707178
 31
0.0
  0
LINE
  5
7F
330
1F
100
AcDbEntity
  8
0
  6
Continuous
 62
     7
370
     0
100
AcDbLine
 10
286.87695766
 20
39.4194259556
 30
0.0
 11
281.6288187393
 21
38.0728771236
 31
0.0
  0
LINE
  5
80
330
1F
100
AcDbEntity
  8
0
  6
Continuous
 62
     7
370
     0
100
AcDbLine
 10
274.8525170264
 20
37.8058329035
 30
0.0
 11
274.8525170264
 21
40.4501140188
 31
0.0
  0
LINE
  5
81
330
1F
100
AcDbEntity
  8
0
  6
Continuous
 62
     7
370
     0
100
AcDbLine
 10
278.5518451523
 20
34.2801707178
 30
0.0
 11
278.5518451523
 21
35.491978705
 31
0.0
  0
LINE
  5
82
330
1F
100
AcDbEntity
  8
0
  6
Continuous
 62
     7
370
     0
100
AcDbLine
 10
282.6310226215
 20
36.342478705
 30
0.0
 11
282.6310226215
 21
34.4404035173
 31
0.0
  0
LINE
  5
83
330
1F
100
AcDbEntity
  8
0
  6
Continuous
 62
     7
370
     0
100
AcDbLine
 10
285.9936659301
 20
36.2699898408
 30
0.0
 11
285.1585626041
 21
36.2699898408
 31
0.0
  0
LINE
  5
84
330
1F
100
AcDbEntity
  8
0
  6
Continuous
 62
     7
370
     0
100
AcDbLine
 10
277.3325069327
 20
34.1708801045
 30
0.0
 11
277.7783962449
 21
34.1708801045
 31
0.0
  0
LINE
  5
85
330
1F
100
AcDbEntity
  8
0
  6
Continuous
 62
     7
370
     0
100
AcDbLine
 10
275.0651420264
 20
40.6627390188
 30
0.0
 11
280.0373977899
 21
40.6627390188
 31
0.0
  0
LINE
  5
86
330
1F
100
AcDbEntity
  8
0
  6
Continuous
 62
     7
370
     0
100
AcDbLine
 10
278.7230700176
 20
36.342478705
 30
0.0
 11
278.7230700176
 21
33.4296707178
 31
0.0
  0
LINE
  5
87
330
1F
100
AcDbEntity
  8
0
  6
Continuous
 62
     7
370
     0
100
AcDbLine
 10
283.2933252358
 20
34.2184230075
 30
0.0
 11
283.2933252358
 21
33.4296707178
 31
0.0
  0
LINE
  5
88
330
1F
100
AcDbEntity
  8
0
  6
Continuous
 62
     7
370
     0
100
AcDbLine
 10
276.3275575884
 20
44.3010185043
 30
0.0
 11
281.5756965091
 21
45.6475673362
 31
0.0
  0
LINE
  5
89
330
1F
100
AcDbEntity
  8
0
  6
Continuous
 62
     7
370
     0
100
AcDbLine
 10
280.9353521277
 20
36.342478705
 30
0.0
 11
279.6759560773
 21
36.342478705
 31
0.0
  0
LINE
  5
8A
330
1F
100
AcDbEntity
  8
0
  6
Continuous
 62
     7
370
     0
100
AcDbLine
 10
283.3679118314
 20
34.2801707178
 30
0.0
 11
283.3679118314
 21
35.491978705
 31
0.0
  0
LINE
  5
8B
330
1F
100
AcDbEntity
  8
0
  6
Continuous
 62
     7
370
     0
100
AcDbLine
 10
285.3752482221
 20
46.1272365563
 30
0.0
 11
288.1393732221
 21
46.1272365563
 31
0.0
  0
LINE
  5
8C
330
1F
100
AcDbEntity
  8
0
  6
Continuous
 62
     7
370
     0
100
AcDbLine
 10
280.4473400304
 20
33.4296707178
 30
0.0
 11
280.4473400304
 21
35.529123974
 31
0.0
  0
LINE
  5
8D
330
1F
100
AcDbEntity
  8
0
  6
Continuous
 62
     7
370
     0
100
AcDbLine
 10
284.1601091726
 20
35.5677478259
 30
0.0
 11
284.6059984847
 21
35.5677478259
 31
0.0
  0
LINE
  5
8E
330
1F
100
AcDbEntity
  8
0
  6
Continuous
 62
     7
370
     0
100
AcDbLine
 10
283.0601894127
 20
43.0288623325
 30
0.0
 11
279.9648125127
 21
41.2279090371
 31
0.0
  0
LINE
  5
8F
330
1F
100
AcDbEntity
  8
0
  6
Continuous
 62
     7
370
     0
100
AcDbLine
 10
280.9589532277
 20
35.2175963695
 30
0.0
 11
280.9589532277
 21
33.4296707178
 31
0.0
  0
LINE
  5
90
330
1F
100
AcDbEntity
  8
0
  6
Continuous
 62
     7
370
     0
100
AcDbLine
 10
285.8841911965
 20
34.8693139652
 30
0.0
 11
285.1585626041
 21
33.4296707178
 31
0.0
  0
LINE
  5
91
330
1F
100
AcDbEntity
  8
0
  6
Continuous
 62
     7
370
     0
100
AcDbLine
 10
287.4935060945
 20
33.4296707178
 30
0.0
 11
286.7476902199
 21
34.8693139652
 31
0.0
  0
LINE
  5
92
330
1F
100
AcDbEntity
  8
0
  6
Continuous
 62
     7
370
     0
100
AcDbLine
 10
275.6609615646
 20
36.342478705
 30
0.0
 11
275.6609615646
 21
34.381101895
 31
0.0
  0
LINE
  5
93
330
1F
100
AcDbEntity
  8
0
  6
Continuous
 62
     7
370
     0
100
AcDbLine
 10
276.5403095915
 20
34.2801707178
 30
0.0
 11
276.5403095915
 21
35.491978705
 31
0.0
  0
LINE
  5
94
330
1F
100
AcDbEntity
  8
0
  6
Continuous
 62
     7
370
     0
100
AcDbLine
 10
282.6310226215
 20
36.342478705
 30
0.0
 11
281.8792693636
 21
36.342478705
 31
0.0
  0
LINE
  5
95
330
1F
100
AcDbEntity
  8
0
  6
Continuous
 62
     7
370
     0
100
AcDbLine
 10
286.6565005195
 20
36.2699898408
 30
0.0
 11
286.3296300593
 21
35.6214805955
 31
0.0
  0
LINE
  5
96
330
1F
100
AcDbEntity
  8
0
  6
Continuous
 62
     7
370
     0
100
AcDbLine
 10
274.8817491271
 20
33.4296707178
 30
0.0
 11
275.656669888
 21
33.4296707178
 31
0.0
  0
LINE
  5
97
330
1F
100
AcDbEntity
  8
0
  6
Continuous
 62
     7
370
     0
100
AcDbLine
 10
277.3325069327
 20
35.5677478259
 30
0.0
 11
277.7783962449
 21
35.5677478259
 31
0.0
  0
LINE
  5
98
330
1F
100
AcDbEntity
  8
0
  6
Continuous
 62
     7
370
     0
100
AcDbLine
 10
284.1601091726
 20
34.1708801045
 30
0.0
 11
284.6059984847
 21
34.1708801045
 31
0.0
  0
LINE
  5
99
330
1F
100
AcDbEntity
  8
0
  6
Continuous
 62
     7
370
     0
100
AcDbLine
 10
277.3325069327
 20
34.1708801045
 30
0.0
 11
277.3325069327
 21
35.5677478259
 31
0.0
  0
LINE
  5
9A
330
1F
100
AcDbEntity
  8
0
  6
Continuous
 62
     7
370
     0
100
AcDbLine
 10
278.7230700176
 20
33.4296707178
 30
0.0
 11
279.4774381482
 21
33.4296707178
 31
0.0
  0
LINE
  5
9B
330
1F
100
AcDbEntity
  8
0
  6
Continuous
 62
     7
370
     0
100
AcDbLine
 10
283.2933252358
 20
33.4296707178
 30
0.0
 11
282.7432848235
 21
33.4296707178
 31
0.0
  0
LINE
  5
9C
330
1F
100
AcDbEntity
  8
TITLE_BLOCK
100
AcDbLine
 10
322.1556881168
 20
25.0021256655
 30
0.0
 11
211.7527938281
 21
25.0021256655
 31
0.0
  0
LINE
  5
9D
330
1F
100
AcDbEntity
  8
TITLE_BLOCK
100
AcDbLine
 10
322.1556881168
 20
32.4021256655
 30
0.0
 11
211.7527938281
 21
32.4021256655
 31
0.0
  0
LINE
  5
9E
330
1F
100
AcDbEntity
  8
TITLE_BLOCK
100
AcDbLine
 10
273.1556881168
 20
39.8021256655
 30
0.0
 11
211.7527938281
 21
39.8021256655
 31
0.0
  0
CIRCLE
  5
9F
330
1F
100
AcDbEntity
  8
TITLE_BLOCK
100
AcDbCircle
 10
298.9091897476
 20
11.1216675118
 30
0.0
 40
2.194117471582236
  0
CIRCLE
  5
A0
330
1F
100
AcDbEntity
  8
TITLE_BLOCK
 62
     7
100
AcDbCircle
 10
298.9091897476
 20
11.1216675118
 30
0.0
 40
1.003116012341382
  0
ARC
  5
A1
330
1F
100
AcDbEntity
  8
0
  6
Continuous
 62
     7
370
     0
100
AcDbCircle
 10
285.3752482221
 20
30.8389137232
 30
0.0
 40
15.28832283311962
100
AcDbArc
 50
90.0
 51
104.3903287789
  0
ARC
  5
A2
330
1F
100
AcDbEntity
  8
0
  6
Continuous
 62
     7
370
     0
100
AcDbCircle
 10
282.8530031312
 20
34.4404035173
 30
0.0
 40
0.2219805097685139
100
AcDbArc
 50
180.0
 51
270.0000000001
  0
ARC
  5
A3
330
1F
100
AcDbEntity
  8
0
  6
Continuous
 62
     7
370
     0
100
AcDbCircle
 10
277.7013451523
 20
34.2801707178
 30
0.0
 40
0.8505000000000109
100
AcDbArc
 50
270.0
 51
0.0
  0
ARC
  5
A4
330
1F
100
AcDbEntity
  8
0
  6
Continuous
 62
     7
370
     0
100
AcDbCircle
 10
284.5289473921
 20
34.2801707178
 30
0.0
 40
0.8504999999999967
100
AcDbArc
 50
269.9999999999
 51
359.9999999992
  0
ARC
  5
A5
330
1F
100
AcDbEntity
  8
0
  6
Continuous
 62
     7
370
     0
100
AcDbCircle
 10
275.656669888
 20
34.1963360204
 30
0.0
 40
0.7666653026695656
100
AcDbArc
 50
270.0
 51
0.0
  0
ARC
  5
A6
330
1F
100
AcDbEntity
  8
0
  6
Continuous
 62
     7
370
     0
100
AcDbCircle
 10
287.3309327804
 20
42.3087535313
 30
0.0
 40
0.2126250000001164
100
AcDbArc
 50
0.0
 51
90.0
  0
ARC
  5
A7
330
1F
100
AcDbEntity
  8
0
  6
Continuous
 62
     7
370
     0
100
AcDbCircle
 10
275.873582468
 20
41.4116909285
 30
0.0
 40
0.2126250000000596
100
AcDbArc
 50
180.0
 51
270.0
  0
ARC
  5
A8
330
1F
100
AcDbEntity
  8
0
  6
Continuous
 62
     7
370
     0
100
AcDbCircle
 10
275.0651420264
 20
40.4501140188
 30
0.0
 40
0.2126250000000169
100
AcDbArc
 50
90.0
 51
180.0
  0
ARC
  5
A9
330
1F
100
AcDbEntity
  8
0
  6
Continuous
 62
     7
370
     0
100
AcDbCircle
 10
288.1393732221
 20
43.2703304411
 30
0.0
 40
0.2126250000000596
100
AcDbArc
 50
270.0
 51
0.0
  0
ARC
  5
AA
330
1F
100
AcDbEntity
  8
0
  6
Continuous
 62
     7
370
     0
100
AcDbCircle
 10
280.6474256232
 20
35.2175963695
 30
0.0
 40
0.3115276045256579
100
AcDbArc
 50
0.0
 51
90.0
  0
ARC
  5
AB
330
1F
100
AcDbEntity
  8
0
  6
Continuous
 62
     7
370
     0
100
AcDbCircle
 10
284.2184118314
 20
34.2801707178
 30
0.0
 40
0.8505000000000678
100
AcDbArc
 50
180.0
 51
270.0
  0
ARC
  5
AC
330
1F
100
AcDbEntity
  8
0
  6
Continuous
 62
     7
370
     0
100
AcDbCircle
 10
277.3908095915
 20
35.491978705
 30
0.0
 40
0.8505000000000038
100
AcDbArc
 50
90.0
 51
180.0
  0
ARC
  5
AD
330
1F
100
AcDbEntity
  8
0
  6
Continuous
 62
     7
370
     0
100
AcDbCircle
 10
284.2184118314
 20
35.491978705
 30
0.0
 40
0.8504999999999754
100
AcDbArc
 50
90.0
 51
180.0
  0
ARC
  5
AE
330
1F
100
AcDbEntity
  8
0
  6
Continuous
 62
     7
370
     0
100
AcDbCircle
 10
277.3908095915
 20
34.2801707178
 30
0.0
 40
0.8504999999999967
100
AcDbArc
 50
180.0
 51
270.0
  0
ARC
  5
AF
330
1F
100
AcDbEntity
  8
0
  6
Continuous
 62
     7
370
     0
100
AcDbCircle
 10
280.9353521277
 20
35.5315772663
 30
0.0
 40
0.8109014386841977
100
AcDbArc
 50
360.0
 51
90.0
  0
ARC
  5
B0
330
1F
100
AcDbEntity
  8
0
  6
Continuous
 62
     7
370
     0
100
AcDbCircle
 10
283.3466307817
 20
42.3087535313
 30
0.0
 40
0.2126250000000603
100
AcDbArc
 50
90.0
 51
120.1917161046
  0
ARC
  5
B1
330
1F
100
AcDbEntity
  8
0
  6
Continuous
 62
     7
370
     0
100
AcDbCircle
 10
279.8578844668
 20
41.4116909285
 30
0.0
 40
0.2126249999999684
100
AcDbArc
 50
270.0
 51
300.1917161045
  0
ARC
  5
B2
330
1F
100
AcDbEntity
  8
0
  6
Continuous
 62
     7
370
     0
100
AcDbCircle
 10
275.0651420264
 20
37.8058329035
 30
0.0
 40
0.2126250000000596
100
AcDbArc
 50
180.0
 51
270.0
  0
ARC
  5
B3
330
1F
100
AcDbEntity
  8
0
  6
Continuous
 62
     7
370
     0
100
AcDbCircle
 10
288.1393732221
 20
45.9146115563
 30
0.0
 40
0.2126250000000596
100
AcDbArc
 50
360.0
 51
90.0
  0
ARC
  5
B4
330
1F
100
AcDbEntity
  8
0
  6
Continuous
 62
     7
370
     0
100
AcDbCircle
 10
282.7432848235
 20
34.2936861776
 30
0.0
 40
0.864015459830398
100
AcDbArc
 50
180.0
 51
270.0
  0
ARC
  5
B5
330
1F
100
AcDbEntity
  8
0
  6
Continuous
 62
     7
370
     0
100
AcDbCircle
 10
277.7013451523
 20
35.491978705
 30
0.0
 40
0.8505000000000109
100
AcDbArc
 50
0.0
 51
90.0
  0
ARC
  5
B6
330
1F
100
AcDbEntity
  8
0
  6
Continuous
 62
     7
370
     0
100
AcDbCircle
 10
284.5289473921
 20
35.491978705
 30
0.0
 40
0.8504999999999896
100
AcDbArc
 50
359.9999999992
 51
90.0000000001
  0
ARC
  5
B7
330
1F
100
AcDbEntity
  8
0
  6
Continuous
 62
     7
370
     0
100
AcDbCircle
 10
275.4584137563
 20
34.381101895
 30
0.0
 40
0.2025478082827021
100
AcDbArc
 50
270.0
 51
0.0
  0
ARC
  5
B8
330
1F
100
AcDbEntity
  8
0
  6
Continuous
 62
     7
370
     0
100
AcDbCircle
 10
286.6565005195
 20
40.2786519057
 30
0.0
 40
0.8870572609452247
100
AcDbArc
 50
284.3903287789
 51
0.0
  0
ARC
  5
B9
330
1F
100
AcDbEntity
  8
0
  6
Continuous
 62
     7
370
     0
100
AcDbCircle
 10
276.548014729
 20
43.4417925541
 30
0.0
 40
0.8870572609452592
100
AcDbArc
 50
104.3903287789
 51
180.0
  0
ARC
  5
BA
330
1F
100
AcDbEntity
  8
0
  6
Continuous
 62
     7
370
     0
100
AcDbCircle
 10
280.0373977899
 20
40.8753640188
 30
0.0
 40
0.2126250000000317
100
AcDbArc
 50
270.0
 51
300.1917161045
  0
ARC
  5
BB
330
1F
100
AcDbEntity
  8
0
  6
Continuous
 62
     7
370
     0
100
AcDbCircle
 10
283.1671174586
 20
42.8450804411
 30
0.0
 40
0.2126249999999814
100
AcDbArc
 50
90.0
 51
120.1917161045
  0
ARC
  5
BC
330
1F
100
AcDbEntity
  8
0
  6
Continuous
 62
     7
370
     0
100
AcDbCircle
 10
277.8292670264
 20
52.8815307366
 30
0.0
 40
15.28832283311961
100
AcDbArc
 50
270.0
 51
284.3903287789
  0
MTEXT
  5
E0
330
1F
100
AcDbEntity
  8
TITLE_BLOCK
100
AcDbMText
 10
324.4945167774
 20
9.5182390542
 30
0.0
 40
2.1166666667
 41
0.0
 46
0.0
 71
     1
 72
     1
  1
SHEET 1 OF 1
  7
SLDTEXTSTYLE0
 73
     1
 44
1.0
  0
MTEXT
  5
E2
330
1F
100
AcDbEntity
  8
TITLE_BLOCK
100
AcDbMText
 10
213.3417293533
 20
44.4107533037
 30
0.0
 40
2.1166666667
 41
0.0
 46
0.0
 71
     1
 72
     1
  1
MATERIAL
  7
SLDTEXTSTYLE1
 73
     1
 44
1.0
  0
MTEXT
  5
E3
330
1F
100
AcDbEntity
  8
TITLE_BLOCK
100
AcDbMText
 10
213.5149717788
 20
37.0894297908
 30
0.0
 40
2.1166666667
 41
0.0
 46
0.0
 71
     1
 72
     1
  1
WEIGHT
  7
SLDTEXTSTYLE1
 73
     1
 44
1.0
  0
MTEXT
  5
E4
330
1F
100
AcDbEntity
  8
TITLE_BLOCK
100
AcDbMText
 10
323.1747691977
 20
36.0022183949
 30
0.0
 40
1.5875
 41
0.0
 46
0.0
 71
     1
 72
     1
  1
TITLE
  7
SLDTEXTSTYLE1
 73
     1
 44
1.0
  0
MTEXT
  5
E5
330
1F
100
AcDbEntity
  8
TITLE_BLOCK
100
AcDbMText
 10
343.7614946789
 20
16.1391007025
 30
0.0
 40
1.5875
 41
0.0
 46
0.0
 71
     1
 72
     1
  1
DRAWING NUMBER
  7
SLDTEXTSTYLE1
 73
     1
 44
1.0
  0
INSERT
  5
F2
330
1F
100
AcDbEntity
  8
TITLE_BLOCK
100
AcDbBlockReference
  2
SW_NOTE_0
 10
215.2622100343339
 20
12.298402942359
 30
0.0
 41
0.81
 42
0.81
 43
0.81
  0
MTEXT
  5
F5
330
1F
100
AcDbEntity
  8
TITLE_BLOCK
100
AcDbMText
 10
306.9472173079
 20
29.8756951151
 30
0.0
 40
2.1166666667
 41
0.0
 46
2.1166666667
 71
     1
 72
     1
  1
{MJS}
  7
SLDTEXTSTYLE1
 73
     1
 44
1.0
1001
ACAD
1000
ACAD_MTEXT_DEFINED_HEIGHT_BEGIN
1070
    46
1040
2.1166666667
1000
ACAD_MTEXT_DEFINED_HEIGHT_END
  0
INSERT
  5
FC
330
1F
100
AcDbEntity
  8
TITLE_BLOCK
100
AcDbBlockReference
  2
SW_NOTE_1
 10
289.786083639812
 20
39.16137898155368
 30
0.0
 41
0.9
 42
0.9
 43
0.9
  0
INSERT
  5
10A
330
1F
100
AcDbEntity
  8
TITLE_BLOCK
100
AcDbBlockReference
  2
SW_NOTE_2
 10
158.6168519177516
 20
41.83017007564239
 30
0.0
 41
0.9
 42
0.9
 43
0.9
  0
MTEXT
  5
10B
330
1F
100
AcDbEntity
  8
TITLE_BLOCK
100
AcDbMText
 10
283.5194251778
 20
29.8743928821
 30
0.0
 40
2.1166666667
 41
0.0
 46
0.0
 71
     1
 72
     1
  1
DRAWN
  7
SLDTEXTSTYLE1
 73
     1
 44
1.0
  0
MTEXT
  5
10C
330
1F
100
AcDbEntity
  8
TITLE_BLOCK
100
AcDbMText
 10
400.9533870978
 20
16.1391007025
 30
0.0
 40
1.5875
 41
0.0
 46
0.0
 71
     1
 72
     1
  1
REV
  7
SLDTEXTSTYLE1
 73
     1
 44
1.0
  0
MTEXT
  5
116
330
1F
100
AcDbEntity
  8
TITLE_BLOCK
100
AcDbMText
 10
335.726535485481
 20
30.17129946467895
 30
0.0
 40
5.2916666666
 41
0.0
 46
2.6458333333
 71
     1
 72
     1
  1
{180D CNC DETAIL}
  7
SLDTEXTSTYLE1
 73
     1
 44
1.0
1001
ACAD
1000
ACAD_MTEXT_DEFINED_HEIGHT_BEGIN
1070
    46
1040
2.6458333333
1000
ACAD_MTEXT_DEFINED_HEIGHT_END
  0
MTEXT
  5
118
330
1F
100
AcDbEntity
  8
TITLE_BLOCK
100
AcDbMText
 10
326.2500765943
 20
15.5200168711
 30
0.0
 40
2.1166666667
 41
0.0
 46
0.0
 71
     1
 72
     1
  1
SCALE 1:1
  7
SLDTEXTSTYLE1
 73
     1
 44
1.0
  0
MTEXT
  5
119
330
1F
100
AcDbEntity
  8
TITLE_BLOCK
100
AcDbMText
 10
287.0428990403
 20
22.1591133735
 30
0.0
 40
2.1166666667
 41
0.0
 46
0.0
 71
     1
 72
     1
  1
DATE
  7
SLDTEXTSTYLE1
 73
     1
 44
1.0
  0
MTEXT
  5
11A
330
1F
100
AcDbEntity
  8
TITLE_BLOCK
100
AcDbMText
 10
301.0923311663
 20
22.1591133153
 30
0.0
 40
2.1166666667
 41
0.0
 46
0.0
 71
     1
 72
     1
  1
18/09/2018
  7
SLDTEXTSTYLE1
 73
     1
 44
1.0
  0
MTEXT
  5
11B
330
1F
100
AcDbEntity
  8
TITLE_BLOCK
100
AcDbMText
 10
213.6538832014
 20
29.5934338183
 30
0.0
 40
2.1166666667
 41
0.0
 46
0.0
 71
     1
 72
     1
  1
FINISH
  7
SLDTEXTSTYLE1
 73
     1
 44
1.0
  0
MTEXT
  5
11C
330
1F
100
AcDbEntity
  8
TITLE_BLOCK
100
AcDbMText
 10
213.2942025654
 20
21.907357706
 30
0.0
 40
2.1166666667
 41
0.0
 46
0.0
 71
     1
 72
     1
  1
COATING
  7
SLDTEXTSTYLE1
 73
     1
 44
1.0
  0
MTEXT
  5
11D
330
1F
100
AcDbEntity
  8
TITLE_BLOCK
100
AcDbMText
 10
312.4826565096
 20
12.9523400001
 30
0.0
 40
3.7041666667
 41
0.0
 46
0.0
 71
     1
 72
     1
  1
A3
  7
SLDTEXTSTYLE1
 73
     1
 44
1.0
  0
INSERT
  5
12B
330
1F
100
AcDbEntity
  8
TITLE_BLOCK
100
AcDbBlockReference
  2
SW_NOTE_4
 10
179.5194074593
 20
19.8789739419
 30
0.0
  0
MTEXT
  5
12C
330
1F
100
AcDbEntity
  8
TITLE_BLOCK
100
AcDbMText
 10
323.1747691977
 20
46.2741749591
 30
0.0
 40
1.5875
 41
0.0
 46
0.0
 71
     1
 72
     1
  1
PROJECT
  7
SLDTEXTSTYLE1
 73
     1
 44
1.0
  0
INSERT
  5
13A
330
1F
100
AcDbEntity
  8
TITLE_BLOCK
100
AcDbBlockReference
  2
SW_NOTE_5
 10
157.5732527778
 20
19.8789748732
 30
0.0
  0
MTEXT
  5
13D
330
1F
100
AcDbEntity
  8
TITLE_BLOCK
100
AcDbMText
 10
359.8973697218
 20
43.3471626234
 30
0.0
 40
2.6458333333
 41
0.0
 46
2.6458333333
 71
     1
 72
     1
  1
{STRIPLOX 180D}
  7
SLDTEXTSTYLE1
 73
     1
 44
1.0
1001
ACAD
1000
ACAD_MTEXT_DEFINED_HEIGHT_BEGIN
1070
    46
1040
2.6458333333
1000
ACAD_MTEXT_DEFINED_HEIGHT_END
  0
MTEXT
  5
13F
330
1F
100
AcDbEntity
  8
SLD-0
 62
     7
100
AcDbMText
 10
287.7153744699
 20
36.3283658992
 30
0.0
 40
1.3229166667
 41
0.0
 46
0.0
 71
     1
 72
     1
  1
®
  7
SLDTEXTSTYLE4
 73
     1
 44
1.0
  0
INSERT
  5
154
330
1F
100
AcDbEntity
  8
SLD-0
100
AcDbBlockReference
  2
SW_TABLEANNOTATION_0
 10
5.1556881168
 20
15.2021256655
 30
0.0
  0
SPLINE
  5
158
330
1F
100
AcDbEntity
  8
0
  6
HIDDEN
 62
     7
370
    15
100
AcDbSpline
210
0.0
220
0.0
230
1.0
 70
     8
 71
     3
 72
    11
 73
     7
 74
     0
 42
0.000000001
 43
0.00000001
 40
0.0
 40
0.0
 40
0.0
 40
0.0
 40
0.0871648591001518
 40
0.4956824624650741
 40
0.9312827968117565
 40
1.0
 40
1.0
 40
1.0
 40
1.0
 10
198.3995658190651
 20
213.2139282890686
 30
0.0
 10
198.3767799956059
 20
213.2100544447267
 30
0.0
 10
198.2472033152999
 20
213.1880249626343
 30
0.0
 10
198.00999598579
 20
213.1216553478206
 30
0.0
 10
197.784047125822
 20
213.0465937179958
 30
0.0
 10
197.6702320228775
 20
212.9920107033058
 30
0.0
 10
197.6547238262101
 20
212.9845733412632
 30
0.0
  0
SPLINE
  5
159
330
1F
100
AcDbEntity
  8
0
  6
Continuous
 62
     7
370
    15
100
AcDbSpline
210
0.0
220
0.0
230
1.0
 70
     8
 71
     3
 72
    11
 73
     7
 74
     0
 42
0.000000001
 43
0.00000001
 40
0.0
 40
0.0
 40
0.0
 40
0.0
 40
0.0871639719227697
 40
0.4956807822427582
 40
0.9312812604509657
 40
1.0
 40
1.0
 40
1.0
 40
1.0
 10
161.8401842968269
 20
182.1125934490093
 30
0.0
 10
161.8321458854908
 20
182.0909238310447
 30
0.0
 10
161.7864333516176
 20
181.9676938663396
 30
0.0
 10
161.7253073713116
 20
181.7290815597618
 30
0.0
 10
161.6773436724653
 20
181.4958732880434
 30
0.0
 10
161.6677020939069
 20
181.3700147334199
 30
0.0
 10
161.6663883285327
 20
181.3528651961216
 30
0.0
  0
SPLINE
  5
15A
330
1F
100
AcDbEntity
  8
0
  6
Continuous
 62
     7
370
    15
100
AcDbSpline
210
0.0
220
0.0
230
1.0
 70
     8
 71
     3
 72
    11
 73
     7
 74
     0
 42
0.000000001
 43
0.00000001
 40
0.0
 40
0.0
 40
0.0
 40
0.0
 40
0.0871648425753543
 40
0.4956807682320587
 40
0.9312839874955762
 40
1.0
 40
1.0
 40
1.0
 40
1.0
 10
170.4950394885345
 20
134.9005757489332
 30
0.0
 10
170.5097868925276
 20
134.8827793154015
 30
0.0
 10
170.5936510322972
 20
134.7815762433357
 30
0.0
 10
170.7697343284859
 20
134.6093353871001
 30
0.0
 10
170.9477126312686
 20
134.4511869395588
 30
0.0
 10
171.0518907275057
 20
134.3799121297866
 30
0.0
 10
171.0660855130954
 20
134.3702005812057
 30
0.0
  0
SPLINE
  5
15B
330
1F
100
AcDbEntity
  8
0
  6
Continuous
 62
     7
370
    15
100
AcDbSpline
210
0.0
220
0.0
230
1.0
 70
     8
 71
     3
 72
    10
 73
     6
 74
     0
 42
0.000000001
 43
0.00000001
 40
0.0
 40
0.0
 40
0.0
 40
0.0
 40
0.4707215719896342
 40
0.8913516054189686
 40
1.0
 40
1.0
 40
1.0
 40
1.0
 10
171.0649045960708
 20
197.6340750821957
 30
0.0
 10
170.9704955974591
 20
197.5600540848946
 30
0.0
 10
170.791724074151
 20
197.4198889879349
 30
0.0
 10
170.6033028208153
 20
197.2328108240657
 30
0.0
 10
170.5136792421077
 20
197.1251608864249
 30
0.0
 10
170.4952816324039
 20
197.1030628898271
 30
0.0
  0
SPLINE
  5
15C
330
1F
100
AcDbEntity
  8
0
  6
Continuous
 62
     7
370
    15
100
AcDbSpline
210
0.0
220
0.0
230
1.0
 70
     8
 71
     3
 72
    10
 73
     6
 74
     0
 42
0.000000001
 43
0.00000001
 40
0.0
 40
0.0
 40
0.0
 40
0.0
 40
0.4707234966226815
 40
0.8913527170988725
 40
1.0
 40
1.0
 40
1.0
 40
1.0
 10
161.6654011266036
 20
150.6501578384169
 30
0.0
 10
161.6823003751159
 20
150.5313860480736
 30
0.0
 10
161.714300458363
 20
150.3064821314499
 30
0.0
 10
161.7821045802576
 20
150.0497652258996
 30
0.0
 10
161.8305212350452
 20
149.9183246825897
 30
0.0
 10
161.840459968309
 20
149.8913432129749
 30
0.0
  0
SPLINE
  5
15D
330
1F
100
AcDbEntity
  8
0
  6
Continuous
 62
     7
370
    15
100
AcDbSpline
210
0.0
220
0.0
230
1.0
 70
     8
 71
     3
 72
    10
 73
     6
 74
     0
 42
0.000000001
 43
0.00000001
 40
0.0
 40
0.0
 40
0.0
 40
0.0
 40
0.4707253778703784
 40
0.891353538381385
 40
0.9999999999999999
 40
0.9999999999999999
 40
0.9999999999999999
 40
0.9999999999999999
 10
197.654916609983
 20
119.0179924138912
 30
0.0
 10
197.7662256526404
 20
118.973239810649
 30
0.0
 10
197.9769976094774
 20
118.8884974255407
 30
0.0
 10
198.2332244927653
 20
118.8188647950764
 30
0.0
 10
198.371262719208
 20
118.7950713656941
 30
0.0
 10
198.3995984153552
 20
118.79018718685
 30
0.0
  0
ARC
  5
161
330
1F
100
AcDbEntity
  8
0
  6
Continuous
 62
     7
370
    15
100
AcDbCircle
 10
206.8044176326527
 20
118.2525651438842
 30
0.0
 40
0.2500024468471145
100
AcDbArc
 50
270.1821368909
 51
359.9998448377011
  0
ARC
  5
162
330
1F
100
AcDbEntity
  8
0
  6
HIDDEN
 62
     7
370
    15
100
AcDbCircle
 10
207.0544200794527
 20
166.0019087263842
 30
0.0
 40
48.00000000000002
100
AcDbArc
 50
259.6118946125
 51
269.6997789996
1001
PE_URL
1000

  0
ARC
  5
163
330
1F
100
AcDbEntity
  8
0
  6
HIDDEN
 62
     7
370
    15
100
AcDbCircle
 10
207.0544200794527
 20
166.0019087263842
 30
0.0
 40
48.0
100
AcDbArc
 50
90.30008683660002
 51
100.3881053875
  0
ARC
  5
164
330
1F
100
AcDbEntity
  8
0
  6
Continuous
 62
     7
370
    15
100
AcDbCircle
 10
206.8044203470527
 20
213.7512539616842
 30
0.0
 40
0.2499997322721082
100
AcDbArc
 50
359.986115960899
 51
90.76961821110291
  0
ARC
  5
165
330
1F
100
AcDbEntity
  8
0
  6
Continuous
 62
     7
370
    15
100
AcDbCircle
 10
161.2779766760527
 20
155.3474622677842
 30
0.0
 40
2.026411089458173
100
AcDbArc
 50
334.9999999999999
 51
13.1022967660998
  0
ARC
  5
166
330
1F
100
AcDbEntity
  8
0
  6
Continuous
 62
     7
370
    15
100
AcDbCircle
 10
193.3932196741527
 20
121.0311226148842
 30
0.0
 40
2.026411089458192
100
AcDbArc
 50
35.00000000000013
 51
73.10229676610032
  0
ARC
  5
167
330
1F
100
AcDbEntity
  8
0
  6
HIDDEN
 62
     7
370
    15
100
AcDbCircle
 10
207.0544200794527
 20
166.0019087263842
 30
0.0
 40
44.97358891054183
100
AcDbArc
 50
226.8977032339
 51
253.1022967661
1001
PE_URL
1000

  0
ARC
  5
168
330
1F
100
AcDbEntity
  8
0
  6
Continuous
 62
     7
370
    15
100
AcDbCircle
 10
174.9391770813527
 20
131.6855690734842
 30
0.0
 40
2.026411089458227
100
AcDbArc
 50
46.89770323389979
 51
84.99999999999994
  0
ARC
  5
169
330
1F
100
AcDbEntity
  8
0
  6
HIDDEN
 62
     7
370
    15
100
AcDbCircle
 10
207.0544200794527
 20
166.0019087263842
 30
0.0
 40
48.00000000000001
100
AcDbArc
 50
139.6118946125
 51
160.3881053875
  0
ARC
  5
16A
330
1F
100
AcDbEntity
  8
0
  6
HIDDEN
 62
     7
370
    15
100
AcDbCircle
 10
207.0544200794527
 20
166.0019087263842
 30
0.0
 40
44.97358891054184
100
AcDbArc
 50
106.8977032339
 51
133.1022967661
  0
ARC
  5
16B
330
1F
100
AcDbEntity
  8
0
  6
PHANTOM
 62
     7
370
    15
100
AcDbCircle
 10
193.3932196741527
 20
210.9726948378842
 30
0.0
 40
2.026411089458178
100
AcDbArc
 50
286.8977032338998
 51
325.0000000000001
  0
ARC
  5
16C
330
1F
100
AcDbEntity
  8
0
  6
PHANTOM
 62
     7
370
    15
100
AcDbCircle
 10
174.9391770813527
 20
200.3182483792842
 30
0.0
 40
2.026411089458222
100
AcDbArc
 50
275.0000000000001
 51
313.1022967661002
  0
ARC
  5
16D
330
1F
100
AcDbEntity
  8
0
  6
HIDDEN
 62
     7
370
    15
100
AcDbCircle
 10
207.0544200794527
 20
166.0019087263842
 30
0.0
 40
48.00000000000001
100
AcDbArc
 50
199.6118946125
 51
220.3881053875
1001
PE_URL
1000

  0
ARC
  5
16E
330
1F
100
AcDbEntity
  8
0
  6
Continuous
 62
     7
370
    15
100
AcDbCircle
 10
161.2779766760527
 20
176.6563551849842
 30
0.0
 40
2.026411089458199
100
AcDbArc
 50
346.8977032339004
 51
24.99999999999974
  0
SPLINE
  5
178
330
1F
100
AcDbEntity
  8
0
  6
Continuous
 62
     7
370
    15
100
AcDbSpline
210
0.0
220
0.0
230
1.0
 70
     8
 71
     3
 72
    12
 73
     8
 74
     0
 42
0.000000001
 43
0.00000001
 40
0.0
 40
0.0
 40
0.0
 40
0.0
 40
0.0481676064655309
 40
0.2636839911728528
 40
0.502309389378955
 40
0.7662989472653626
 40
1.0
 40
1.0
 40
1.0
 40
1.0
 10
171.0663909868999
 20
134.3716757961639
 30
0.0
 10
171.0827783785294
 20
134.3584900292818
 30
0.0
 10
171.172487897994
 20
134.286307168366
 30
0.0
 10
171.3651013526186
 20
134.1831647346616
 30
0.0
 10
171.6489540082057
 20
134.0669458184289
 30
0.0
 10
171.95146236963
 20
133.9880349053249
 30
0.0
 10
172.1597883404789
 20
133.9651793247195
 30
0.0
 10
172.2576121644779
 20
133.9544470080265
 30
0.0
  0
SPLINE
  5
179
330
1F
100
AcDbEntity
  8
0
  6
HIDDEN
 62
     7
370
    15
100
AcDbSpline
210
0.0
220
0.0
230
1.0
 70
     8
 71
     3
 72
    12
 73
     8
 74
     0
 42
0.000000001
 43
0.00000001
 40
0.0
 40
0.0
 40
0.0
 40
0.0
 40
0.0481690387501333
 40
0.2636844070346206
 40
0.5023087104583092
 40
0.7662983115521406
 40
0.9999999999999999
 40
0.9999999999999999
 40
0.9999999999999999
 40
0.9999999999999999
 10
161.6678225652976
 20
181.3533401706346
 30
0.0
 10
161.6645963767966
 20
181.3325548005029
 30
0.0
 10
161.6469357461519
 20
181.2187726254709
 30
0.0
 10
161.6539252899211
 20
181.000393179938
 30
0.0
 10
161.6951980560071
 20
180.6964606354536
 30
0.0
 10
161.7781139966024
 20
180.3950248328847
 30
0.0
 10
161.8624844018341
 20
180.2031812583585
 30
0.0
 10
161.9021023468776
 20
180.1130969666966
 30
0.0
1001
PE_URL
1000

  0
SPLINE
  5
17A
330
1F
100
AcDbEntity
  8
0
  6
HIDDEN
 62
     7
370
    15
100
AcDbSpline
210
0.0
220
0.0
230
1.0
 70
     8
 71
     3
 72
    12
 73
     8
 74
     0
 42
0.000000001
 43
0.00000001
 40
0.0
 40
0.0
 40
0.0
 40
0.0
 40
0.0481689939445392
 40
0.2636839403235535
 40
0.5023078680622732
 40
0.7662985287873557
 40
0.9999999999999999
 40
0.9999999999999999
 40
0.9999999999999999
 40
0.9999999999999999
 10
197.6558507265253
 20
212.9835712381729
 30
0.0
 10
197.6362372233521
 20
212.9759719521292
 30
0.0
 10
197.5288701106775
 20
212.9343723768932
 30
0.0
 10
197.3432405450218
 20
212.819135391907
 30
0.0
 10
197.1006618694538
 20
212.6314268837846
 30
0.0
 10
196.8810726857273
 20
212.408897473216
 30
0.0
 10
196.7571151726567
 20
212.2399094974928
 30
0.0
 10
196.6989083992048
 20
212.1605577536949
 30
0.0
1001
PE_URL
1000

  0
SPLINE
  5
17B
330
1F
100
AcDbEntity
  8
0
  6
Continuous
 62
     7
370
    15
100
AcDbSpline
210
0.0
220
0.0
230
1.0
 70
     8
 71
     3
 72
    11
 73
     7
 74
     0
 42
0.000000001
 43
0.00000001
 40
0.0
 40
0.0
 40
0.0
 40
0.0
 40
0.2237038479118482
 40
0.5186308601719057
 40
0.7761247163793776
 40
1.0
 40
1.0
 40
1.0
 40
1.0
 10
161.9021023468776
 20
151.890720485998
 30
0.0
 10
161.8640584853265
 20
151.8046402285309
 30
0.0
 10
161.7758583009101
 20
151.6050733529912
 30
0.0
 10
161.6910603858175
 20
151.2876732437696
 30
0.0
 10
161.6452546099964
 20
150.9574951744701
 30
0.0
 10
161.6587667293595
 20
150.7489399595475
 30
0.0
 10
161.6650509493156
 20
150.6519450464376
 30
0.0
  0
SPLINE
  5
17C
330
1F
100
AcDbEntity
  8
0
  6
HIDDEN
 62
     7
370
    15
100
AcDbSpline
210
0.0
220
0.0
230
1.0
 70
     8
 71
     3
 72
    11
 73
     7
 74
     0
 42
0.000000001
 43
0.00000001
 40
0.0
 40
0.0
 40
0.0
 40
0.0
 40
0.2237022121494601
 40
0.5186311600305805
 40
0.7761239259663697
 40
1.0
 40
1.0
 40
1.0
 40
1.0
 10
172.2576121644779
 20
198.0493704446682
 30
0.0
 10
172.1640434319924
 20
198.0392771248915
 30
0.0
 10
171.9471137029332
 20
198.0158767745146
 30
0.0
 10
171.6298377501263
 20
197.9306142046139
 30
0.0
 10
171.3209939722079
 20
197.8051901487905
 30
0.0
 10
171.1471344637525
 20
197.6892133630918
 30
0.0
 10
171.0662755029006
 20
197.6352746256718
 30
0.0
1001
PE_URL
1000

  0
SPLINE
  5
17D
330
1F
100
AcDbEntity
  8
0
  6
Continuous
 62
     7
370
    15
100
AcDbSpline
210
0.0
220
0.0
230
1.0
 70
     8
 71
     3
 72
    11
 73
     7
 74
     0
 42
0.000000001
 43
0.00000001
 40
0.0
 40
0.0
 40
0.0
 40
0.0
 40
0.2237043761116969
 40
0.5186309028072454
 40
0.7761254835697505
 40
0.9999999999999999
 40
0.9999999999999999
 40
0.9999999999999999
 40
0.9999999999999999
 10
196.6989083992048
 20
119.8432596989998
 30
0.0
 10
196.7544342831564
 20
119.7672723919296
 30
0.0
 10
196.8831641713397
 20
119.5911052272425
 30
0.0
 10
197.1156414036078
 20
119.3589671424127
 30
0.0
 10
197.3786827239066
 20
119.1542115992399
 30
0.0
 10
197.5660515028142
 20
119.0616334228639
 30
0.0
 10
197.6531927318974
 20
119.0185772844681
 30
0.0
  0
SPLINE
  5
17E
330
1F
100
AcDbEntity
  8
0
  6
Continuous
 62
     7
370
    15
100
AcDbSpline
210
0.0
220
0.0
230
1.0
 70
     8
 71
     3
 72
    15
 73
    11
 74
     0
 42
0.000000001
 43
0.00000001
 40
0.0
 40
0.0
 40
0.0
 40
0.0
 40
0.2450686952562114
 40
0.495239306529627
 40
0.7624466200644556
 40
0.8298052954129991
 40
0.8631265127738397
 40
0.9093999319655117
 40
0.971672899665774
 40
1.0
 40
1.0
 40
1.0
 40
1.0
 10
162.4416286902233
 20
165.8233886533973
 30
0.0
 10
162.3968969564988
 20
165.7772205539495
 30
0.0
 10
162.3065022499599
 20
165.6839232132573
 30
0.0
 10
162.2035616361035
 20
165.5747448941278
 30
0.0
 10
162.1620374286151
 20
165.5292847273975
 30
0.0
 10
162.1332912694298
 20
165.4929970051679
 30
0.0
 10
162.1130577783609
 20
165.4604228172829
 30
0.0
 10
162.0945235853708
 20
165.4162591670447
 30
0.0
 10
162.0829545112131
 20
165.3683521961413
 30
0.0
 10
162.0877559758475
 20
165.336541864682
 30
0.0
 10
162.089257206182
 20
165.326596017284
 30
0.0
  0
SPLINE
  5
17F
330
1F
100
AcDbEntity
  8
0
  6
Continuous
 62
     7
370
    15
100
AcDbSpline
210
0.0
220
0.0
230
1.0
 70
     8
 71
     3
 72
    17
 73
    13
 74
     0
 42
0.000000001
 43
0.00000001
 40
0.0
 40
0.0
 40
0.0
 40
0.0
 40
0.0458951396500837
 40
0.0932798400244867
 40
0.1305576578406177
 40
0.159135498346934
 40
0.1910163301859697
 40
0.2471462376584162
 40
0.3990215415584391
 40
0.6547268351058986
 40
0.9212709542355387
 40
1.0
 40
1.0
 40
1.0
 40
1.0
 10
162.0866942064567
 20
166.6604452890434
 30
0.0
 10
162.0870974831593
 20
166.6444670364864
 30
0.0
 10
162.0879171252083
 20
166.6119919453601
 30
0.0
 10
162.1014326049923
 20
166.5690300577014
 30
0.0
 10
162.1170657455239
 20
166.5367742123162
 30
0.0
 10
162.1296405149065
 20
166.5168391178109
 30
0.0
 10
162.1408713243784
 20
166.5012281201331
 30
0.0
 10
162.1577091652385
 20
166.4803133728702
 30
0.0
 10
162.1896961444475
 20
166.4441188200652
 30
0.0
 10
162.2678471789788
 20
166.3606036657868
 30
0.0
 10
162.3605401054227
 20
166.2638022491904
 30
0.0
 10
162.4278462032625
 20
166.1946855601556
 30
0.0
 10
162.4431933121486
 20
166.1789256010062
 30
0.0
  0
LINE
  5
198
330
1F
100
AcDbEntity
  8
0
  6
HIDDEN
 62
     7
370
    15
100
AcDbLine
 10
195.0533452288527
 20
209.8102609284842
 30
0.0
 11
196.7043948204527
 21
212.1682057746842
 31
0.0
1001
PE_URL
1000

  0
LINE
  5
19D
330
1F
100
AcDbEntity
  8
0
  6
HIDDEN
 62
     7
370
    15
100
AcDbLine
 10
163.1147364930527
 20
177.5128499262842
 30
0.0
 11
161.8982205943527
 21
180.1216716536842
 31
0.0
1001
PE_URL
1000

  0
LINE
  5
1A0
330
1F
100
AcDbEntity
  8
0
  6
HIDDEN
 62
     7
370
    15
100
AcDbLine
 10
172.2482467846527
 20
198.0484428473842
 30
0.0
 11
175.1158113436527
 21
198.2993225224842
 31
0.0
  0
LINE
  5
1A5
330
1F
100
AcDbEntity
  8
0
  6
HIDDEN
 62
     7
370
    15
100
AcDbLine
 10
161.8982205943527
 20
151.8821457990842
 30
0.0
 11
163.1147364930527
 21
154.4909675263842
 31
0.0
1001
PE_URL
1000

  0
LINE
  5
1AC
330
1F
100
AcDbEntity
  8
0
  6
HIDDEN
 62
     7
370
    15
100
AcDbLine
 10
175.1158113436527
 20
133.7044949301842
 30
0.0
 11
172.2482467846527
 21
133.9553746052842
 31
0.0
1001
PE_URL
1000

  0
LINE
  5
1AF
330
1F
100
AcDbEntity
  8
0
  6
HIDDEN
 62
     7
370
    15
100
AcDbLine
 10
196.7043948204527
 20
119.8356116779842
 30
0.0
 11
195.0533452288527
 21
122.1935565241842
 31
0.0
1001
PE_URL
1000

  0
SPLINE
  5
1B5
330
1F
100
AcDbEntity
  8
0
  6
Continuous
 62
     7
370
    15
100
AcDbSpline
210
0.0
220
0.0
230
1.0
 70
    24
 71
     3
 72
    12
 73
     8
 74
     0
 42
0.000000001
 43
0.00000001
 40
0.0
 40
0.0
 40
0.0
 40
0.0
 40
0.5000000000000031
 40
0.5000000000000031
 40
0.7500000000000016
 40
0.7500000000000016
 40
1.0
 40
1.0
 40
1.0
 40
1.0
 10
207.0544200794502
 20
185.8461486549893
 30
0.0
 10
207.0544200794502
 20
185.8189693739765
 30
0.0
 10
207.0544200794502
 20
185.6730105623771
 30
0.0
 10
207.0544200794502
 20
185.3311904011613
 30
0.0
 10
207.0544200794502
 20
185.1983978371009
 30
0.0
 10
207.0544200794502
 20
184.9092524899965
 30
0.0
 10
207.0544200794502
 20
184.7567108349552
 30
0.0
 10
207.0544200794502
 20
184.6007998523574
 30
0.0
  0
SPLINE
  5
1BF
330
1F
100
AcDbEntity
  8
0
  6
Continuous
 62
     7
370
    15
100
AcDbSpline
210
0.0
220
0.0
230
1.0
 70
    24
 71
     3
 72
    12
 73
     8
 74
     0
 42
0.000000001
 43
0.00000001
 40
0.0
 40
0.0
 40
0.0
 40
0.0
 40
0.5000000000000021
 40
0.5000000000000021
 40
0.750000000000001
 40
0.750000000000001
 40
1.0
 40
1.0
 40
1.0
 40
1.0
 10
207.0544200794502
 20
147.4030176003373
 30
0.0
 10
207.0544200794502
 20
147.091196318037
 30
0.0
 10
207.0544200794502
 20
146.7860448124063
 30
0.0
 10
207.0544200794502
 20
146.4443733119164
 30
0.0
 10
207.0544200794502
 20
146.3504233697717
 30
0.0
 10
207.0544200794502
 20
146.2132118289054
 30
0.0
 10
207.0544200794502
 20
146.1712584083877
 30
0.0
 10
207.0544200794502
 20
146.1576687977053
 30
0.0
  0
SPLINE
  5
1D0
330
1F
100
AcDbEntity
  8
0
  6
Continuous
 62
     7
370
    15
100
AcDbSpline
210
0.0
220
0.0
230
1.0
 70
     8
 71
     3
 72
    12
 73
     8
 74
     0
 42
0.000000001
 43
0.00000001
 40
0.0
 40
0.0
 40
0.0
 40
0.0
 40
0.1413378094561663
 40
0.3560010719328064
 40
0.5706657099820144
 40
0.7853338881528497
 40
1.0
 40
1.0
 40
1.0
 40
1.0
 10
206.8031276246729
 20
118.0153268047699
 30
0.0
 10
206.8031271955086
 20
118.0149974623306
 30
0.0
 10
206.8031261145315
 20
118.0141679159985
 30
0.0
 10
206.8032899065599
 20
118.1411657702117
 30
0.0
 10
206.8035805775127
 20
118.365161174301
 30
0.0
 10
206.8039731812362
 20
118.6654091219859
 30
0.0
 10
206.8042711059405
 20
118.8901856928315
 30
0.0
 10
206.8044200675758
 20
119.0025734373459
 30
0.0
  0
LINE
  5
1D5
330
1F
100
AcDbEntity
  8
0
  6
Continuous
 62
     7
370
    15
100
AcDbLine
 10
196.2141941146527
 20
166.5288932395842
 30
0.0
 11
196.5165433318527
 21
166.3543319278842
 31
0.0
  0
LINE
  5
1DC
330
1F
100
AcDbEntity
  8
0
  6
Continuous
 62
     7
370
    15
100
AcDbLine
 10
196.5165433318527
 20
165.6494855247842
 30
0.0
 11
196.2141941146527
 21
165.4749242130842
 31
0.0
  0
SPLINE
  5
1E8
330
1F
100
AcDbEntity
  8
0
  6
Continuous
 62
     7
370
    15
100
AcDbSpline
210
0.0
220
0.0
230
1.0
 70
    24
 71
     3
 72
    10
 73
     6
 74
     0
 42
0.000000001
 43
0.00000001
 40
0.0
 40
0.0
 40
0.0
 40
0.0
 40
0.5
 40
0.5
 40
1.0
 40
1.0
 40
1.0
 40
1.0
 10
207.0544200794502
 20
154.7633022685342
 30
0.0
 10
207.0544200794502
 20
154.7621623451117
 30
0.0
 10
207.0544200794502
 20
154.7345185699533
 30
0.0
 10
207.0544200794502
 20
154.6424346771552
 30
0.0
 10
207.0544200794502
 20
154.578579381173
 30
0.0
 10
207.0544200794502
 20
154.5132798537618
 30
0.0
  0
SPLINE
  5
1EC
330
1F
100
AcDbEntity
  8
0
  6
Continuous
 62
     7
370
    15
100
AcDbSpline
210
0.0
220
0.0
230
1.0
 70
    24
 71
     3
 72
    10
 73
     6
 74
     0
 42
0.000000001
 43
0.00000001
 40
0.0
 40
0.0
 40
0.0
 40
0.0
 40
0.5
 40
0.5
 40
1.0
 40
1.0
 40
1.0
 40
1.0
 10
207.0544200794502
 20
127.7613392047893
 30
0.0
 10
207.0544200794502
 20
127.7601996716775
 30
0.0
 10
207.0544200794502
 20
127.7325687357077
 30
0.0
 10
207.0544200794502
 20
127.6405109983927
 30
0.0
 10
207.0544200794502
 20
127.5766642931977
 30
0.0
 10
207.0544200794502
 20
127.5113719740996
 30
0.0
  0
SPLINE
  5
1F2
330
1F
100
AcDbEntity
  8
0
  6
Continuous
 62
     7
370
    15
100
AcDbSpline
210
0.0
220
0.0
230
1.0
 70
    24
 71
     3
 72
    10
 73
     6
 74
     0
 42
0.000000001
 43
0.00000001
 40
0.0
 40
0.0
 40
0.0
 40
0.0
 40
0.5
 40
0.5
 40
1.0
 40
1.0
 40
1.0
 40
1.0
 10
207.0544200794502
 20
204.492445478595
 30
0.0
 10
207.0544200794502
 20
204.4271531866055
 30
0.0
 10
207.0544200794502
 20
204.3631504135369
 30
0.0
 10
207.0544200794502
 20
204.27115595924
 30
0.0
 10
207.0544200794502
 20
204.2436177805486
 30
0.0
 10
207.0544200794502
 20
204.2424782479054
 30
0.0
  0
SPLINE
  5
1F5
330
1F
100
AcDbEntity
  8
0
  6
Continuous
 62
     7
370
    15
100
AcDbSpline
210
0.0
220
0.0
230
1.0
 70
    24
 71
     3
 72
    10
 73
     6
 74
     0
 42
0.000000001
 43
0.00000001
 40
0.0
 40
0.0
 40
0.0
 40
0.0
 40
0.5
 40
0.5
 40
1.0
 40
1.0
 40
1.0
 40
1.0
 10
207.0544200794502
 20
177.4905375989329
 30
0.0
 10
207.0544200794502
 20
177.4252383826376
 30
0.0
 10
207.0544200794502
 20
177.3612257013658
 30
0.0
 10
207.0544200794502
 20
177.2692071155608
 30
0.0
 10
207.0544200794502
 20
177.2416551022396
 30
0.0
 10
207.0544200794502
 20
177.2405151841605
 30
0.0
  0
SPLINE
  5
236
330
1F
100
AcDbEntity
  8
0
  6
Continuous
 62
     7
370
    15
100
AcDbSpline
210
0.0
220
0.0
230
1.0
 70
     8
 71
     3
 72
    20
 73
    16
 74
     0
 42
0.000000001
 43
0.00000001
 40
0.0
 40
0.0
 40
0.0
 40
0.0
 40
0.0769524745803283
 40
0.1538902523087297
 40
0.2308160035470966
 40
0.3077323997323633
 40
0.3846421131381777
 40
0.461547816636163
 40
0.5384521834568428
 40
0.6153578869503982
 40
0.6922676003473555
 40
0.7691839965193341
 40
0.8461097477399855
 40
0.9230475254462417
 40
1.0
 40
1.0
 40
1.0
 40
1.0
 10
196.5165430818474
 20
166.3543319342566
 30
0.0
 10
196.5349526055826
 20
166.3425145872893
 30
0.0
 10
196.57176813709
 20
166.3188821503035
 30
0.0
 10
196.6188829789511
 20
166.2727856678254
 30
0.0
 10
196.6584538216573
 20
166.2203375069366
 30
0.0
 10
196.6889792811449
 20
166.1620644694506
 30
0.0
 10
196.7097989169421
 20
166.0996964432524
 30
0.0
 10
196.7203406357028
 20
166.0347866274563
 30
0.0
 10
196.7203406356964
 20
165.9690308251601
 30
0.0
 10
196.709798916924
 20
165.9041210093697
 30
0.0
 10
196.6889792811181
 20
165.8417529831825
 30
0.0
 10
196.6584538216269
 20
165.7834799457114
 30
0.0
 10
196.6188829789236
 20
165.7310317848395
 30
0.0
 10
196.5717681370724
 20
165.6849353023786
 30
0.0
 10
196.5349526055763
 20
165.661302865401
 30
0.0
 10
196.5165430818474
 20
165.6494855184381
 30
0.0
  0
LINE
  5
249
330
1F
100
AcDbEntity
  8
0
  6
HIDDEN
 62
     7
370
    15
100
AcDbLine
 10
206.8044200675527
 20
119.0025734373842
 30
0.0
 11
206.8044200675527
 21
123.7948017784842
 31
0.0
1001
PE_URL
1000

  0
LINE
  5
24B
330
1F
100
AcDbEntity
  8
0
  6
Continuous
 62
     7
370
    15
100
AcDbLine
 10
207.0544200794527
 20
123.5019082792842
 30
0.0
 11
207.0544200794527
 21
119.0025734373842
 31
0.0
  0
ARC
  5
2F5
330
1F
100
AcDbEntity
  8
0
  6
Continuous
 62
     7
370
    15
100
AcDbCircle
 10
206.8044200794527
 20
206.1498269980842
 30
0.0
 40
0.2500000000000056
100
AcDbArc
 50
0.0
 51
79.52431830360054
  0
ARC
  5
32D
330
1F
100
AcDbEntity
  8
0
  6
HIDDEN
 62
     7
370
    15
100
AcDbCircle
 10
207.0544200794527
 20
166.0019087263842
 30
0.0
 40
44.97336045327641
100
AcDbArc
 50
166.8977032339
 51
179.1569945878001
1001
PE_URL
1000

  0
ARC
  5
32F
330
1F
100
AcDbEntity
  8
0
  6
HIDDEN
 62
     7
370
    15
100
AcDbCircle
 10
207.0544200794527
 20
166.0019087263842
 30
0.0
 40
44.97336045327641
100
AcDbArc
 50
180.8430054122
 51
193.1022967661
1001
PE_URL
1000

  0
LINE
  5
344
330
1F
100
AcDbEntity
  8
0
  6
Continuous
 62
     7
370
    15
100
AcDbLine
 10
207.0544200794527
 20
206.1498279341842
 30
0.0
 11
207.0544200794527
 21
204.4924462803842
 31
0.0
  0
ARC
  5
386
330
1F
100
AcDbEntity
  8
0
  6
HIDDEN
 62
     7
370
    15
100
AcDbCircle
 10
207.0544200794527
 20
207.5019087263842
 30
0.0
 40
1.124999999999996
100
AcDbArc
 50
100.4756816963994
 51
259.5243183036006
1001
PE_URL
1000

  0
LINE
  5
38A
330
1F
100
AcDbEntity
  8
0
  6
Continuous
 62
     7
370
    15
100
AcDbLine
 10
207.0544200794527
 20
213.0012440153842
 30
0.0
 11
207.0544200794527
 21
208.8539900847842
 31
0.0
  0
LINE
  5
399
330
1F
100
AcDbEntity
  8
0
  6
Continuous
 62
     7
370
    15
100
AcDbLine
 10
207.0544200794527
 20
127.5113711722842
 30
0.0
 11
207.0544200794527
 21
125.5019086071842
 31
0.0
  0
ARC
  5
3A5
330
1F
100
AcDbEntity
  8
0
  6
HIDDEN
 62
     7
370
    15
100
AcDbCircle
 10
207.0544200794527
 20
124.5019087263842
 30
0.0
 40
1.0
100
AcDbArc
 50
270.0
 51
90.0
1001
PE_URL
1000

  0
ARC
  5
3AC
330
1F
100
AcDbEntity
  8
0
  6
Continuous
 62
     7
370
    15
100
AcDbCircle
 10
206.8044200794527
 20
208.8539904546842
 30
0.0
 40
0.2500000000000056
100
AcDbArc
 50
280.4756816963994
 51
0.0
  0
LINE
  5
3C6
330
1F
100
AcDbEntity
  8
0
  6
Continuous
 62
     7
370
    15
100
AcDbLine
 10
207.0544200794527
 20
154.5132801525842
 30
0.0
 11
207.0544200794527
 21
151.9559484564842
 31
0.0
  0
LINE
  5
3D3
330
1F
100
AcDbEntity
  8
0
  6
Continuous
 62
     7
370
    15
100
AcDbLine
 10
207.0544200794527
 20
149.9559490599842
 30
0.0
 11
207.0544200794527
 21
147.4030169316842
 31
0.0
  0
LINE
  5
3D4
330
1F
100
AcDbEntity
  8
0
  6
Continuous
 62
     7
370
    15
100
AcDbLine
 10
207.0544200794527
 20
184.6008005209842
 30
0.0
 11
207.0544200794527
 21
182.3999511667842
 31
0.0
  0
ARC
  5
3E5
330
1F
100
AcDbEntity
  8
0
  6
HIDDEN
 62
     7
370
    15
100
AcDbCircle
 10
207.0544200794527
 20
150.9559487816842
 30
0.0
 40
1.000000000000028
100
AcDbArc
 50
270.0
 51
90.0
1001
PE_URL
1000

  0
ARC
  5
3E6
330
1F
100
AcDbEntity
  8
0
  6
Continuous
 62
     7
370
    15
100
AcDbCircle
 10
206.8044200794527
 20
182.3999503993842
 30
0.0
 40
0.2500000000000056
100
AcDbArc
 50
280.4756816963994
 51
0.0
  0
ARC
  5
3FA
330
1F
100
AcDbEntity
  8
0
  6
HIDDEN
 62
     7
370
    15
100
AcDbCircle
 10
207.0544200794527
 20
181.0478686710842
 30
0.0
 40
1.125000000000024
100
AcDbArc
 50
100.4756816964006
 51
259.5243183035994
1001
PE_URL
1000

  0
LINE
  5
409
330
1F
100
AcDbEntity
  8
0
  6
Continuous
 62
     7
370
    15
100
AcDbLine
 10
207.0544200794527
 20
179.6957871534842
 30
0.0
 11
207.0544200794527
 21
177.4905373000842
 31
0.0
  0
ARC
  5
40D
330
1F
100
AcDbEntity
  8
0
  6
Continuous
 62
     7
370
    15
100
AcDbCircle
 10
206.8044200794527
 20
179.6957869427842
 30
0.0
 40
0.2500000000000056
100
AcDbArc
 50
0.0
 51
79.52431830360054
  0
SPLINE
  5
476
330
1F
100
AcDbEntity
  8
0
  6
Continuous
 62
     7
370
    15
100
AcDbSpline
210
0.0
220
0.0
230
1.0
 70
     8
 71
     3
 72
    14
 73
    10
 74
     0
 42
0.000000001
 43
0.00000001
 40
0.0
 40
0.0
 40
0.0
 40
0.0
 40
0.2499999999999999
 40
0.2499999999999999
 40
0.4999999999999998
 40
0.4999999999999998
 40
0.7499999999999999
 40
0.7499999999999999
 40
1.0
 40
1.0
 40
1.0
 40
1.0
 10
162.4433765499349
 20
166.178658497697
 30
0.0
 10
162.4581568310183
 20
166.1629739959706
 30
0.0
 10
162.4739864931876
 20
166.142679054787
 30
0.0
 10
162.5017438550718
 20
166.0843361057582
 30
0.0
 10
162.513075976593
 20
166.0441427312646
 30
0.0
 10
162.5129333410694
 20
165.9588029428239
 30
0.0
 10
162.5015201582765
 20
165.9189384660086
 30
0.0
 10
162.4739929865247
 20
165.8612253172737
 30
0.0
 10
162.4581200635018
 20
165.8408044398629
 30
0.0
 10
162.4433765499349
 20
165.8251589549976
 30
0.0
  0
ARC
  5
54B
330
1F
100
AcDbEntity
  8
0
  6
Continuous
 62
     7
370
    15
100
AcDbCircle
 10
206.8044404032527
 20
154.9161303372842
 30
0.0
 40
0.2499796768802825
100
AcDbArc
 50
0.0042495694996793
 51
88.71286827729904
  0
LINE
  5
54C
330
1F
100
AcDbEntity
  8
0
  6
Continuous
 62
     7
370
    15
100
AcDbLine
 10
207.0544200794527
 20
154.9161488779842
 30
0.0
 11
207.0544200794527
 21
154.7633020796842
 31
0.0
  0
ARC
  5
54F
330
1F
100
AcDbEntity
  8
0
  6
Continuous
 62
     7
370
    15
100
AcDbCircle
 10
206.8044404032527
 20
177.0876871154842
 30
0.0
 40
0.2499796768802959
100
AcDbArc
 50
271.2871317227008
 51
359.9957504305003
  0
LINE
  5
551
330
1F
100
AcDbEntity
  8
0
  6
Continuous
 62
     7
370
    15
100
AcDbLine
 10
207.0544200794527
 20
177.2405153729842
 30
0.0
 11
207.0544200794527
 21
177.0876685746842
 31
0.0
  0
ARC
  5
559
102
{ACAD_REACTORS
330
148B
102
}
330
1F
100
AcDbEntity
  8
0
  6
HIDDEN
 62
     7
370
    15
100
AcDbCircle
 10
207.0544200794527
 20
166.0019087263842
 30
0.0
 40
10.83861680763592
100
AcDbArc
 50
91.2918841091
 51
177.3587060346999
1001
PE_URL
1000

  0
ARC
  5
55A
330
1F
100
AcDbEntity
  8
0
  6
HIDDEN
 62
     7
370
    15
100
AcDbCircle
 10
207.0544200794527
 20
166.0019087263842
 30
0.0
 40
10.83861680763583
100
AcDbArc
 50
182.6412939653
 51
268.7081158909
1001
PE_URL
1000

  0
ARC
  5
55B
330
1F
100
AcDbEntity
  8
0
  6
Continuous
 62
     7
370
    15
100
AcDbCircle
 10
206.8044446728527
 20
204.1642494995842
 30
0.0
 40
0.2499754071396436
100
AcDbArc
 50
303.0159107742799
 51
359.9962878631973
  0
LINE
  5
55D
330
1F
100
AcDbEntity
  8
0
  6
Continuous
 62
     7
370
    15
100
AcDbLine
 10
207.0544200794527
 20
204.2424793013842
 30
0.0
 11
207.0544200794527
 21
204.1642333038842
 31
0.0
  0
ARC
  5
55F
330
1F
100
AcDbEntity
  8
0
  6
Continuous
 62
     7
370
    15
100
AcDbCircle
 10
206.8044446728527
 20
127.8395679530842
 30
0.0
 40
0.2499754071396436
100
AcDbArc
 50
0.0037121368027653
 51
55.9521433877029
  0
LINE
  5
560
330
1F
100
AcDbEntity
  8
0
  6
Continuous
 62
     7
370
    15
100
AcDbLine
 10
207.0544200794527
 20
127.8395841487842
 30
0.0
 11
207.0544200794527
 21
127.7613381513842
 31
0.0
  0
SPLINE
  5
575
330
1F
100
AcDbEntity
  8
0
  6
Continuous
 62
     7
370
    15
100
AcDbSpline
210
0.0
220
0.0
230
1.0
 70
     8
 71
     3
 72
    29
 73
    25
 74
     0
 42
0.000000001
 43
0.00000001
 40
0.0
 40
0.0
 40
0.0
 40
0.0
 40
0.0000001152040939
 40
0.0000001152040939
 40
0.0000001152040939
 40
0.0000002649067204
 40
0.0000002649067204
 40
0.0000002649067204
 40
0.0000005515109894
 40
0.0000005515109894
 40
0.0000005515109894
 40
0.0000016420431917
 40
0.0000016420431917
 40
0.0000016420431917
 40
0.0000059614613384
 40
0.0000059614613384
 40
0.0000059614613384
 40
0.0000231652713546
 40
0.0000231652713546
 40
0.0000231652713546
 40
0.0000919354316937
 40
0.0000919354316937
 40
0.0000919354316937
 40
0.0002075117016383
 40
0.0002075117016383
 40
0.0002075117016383
 40
0.0002075117016383
 10
206.9294200794502
 20
186.4491597568605
 30
0.0
 10
206.9293868229007
 20
186.44917888676
 30
0.0
 10
206.9293531533659
 20
186.4491989307116
 30
0.0
 10
206.9293220680739
 20
186.4492179825727
 30
0.0
 10
206.9292816591445
 20
186.4492427487969
 30
0.0
 10
206.9292442245488
 20
186.4492666358932
 30
0.0
 10
206.9292106004039
 20
186.4492886689459
 30
0.0
 10
206.9291464069635
 20
186.4493307332855
 30
0.0
 10
206.9290929757025
 20
186.4493679202007
 30
0.0
 10
206.9290455193212
 20
186.4494019057189
 30
0.0
 10
206.928866320756
 20
186.4495302373774
 30
0.0
 10
206.9287515143548
 20
186.4496256733661
 30
0.0
 10
206.9286450692804
 20
186.4497158800633
 30
0.0
 10
206.9282235102977
 20
186.4500731295059
 30
0.0
 10
206.9279723270603
 20
186.4503377385647
 30
0.0
 10
206.9277172214632
 20
186.4506033833725
 30
0.0
 10
206.9267007803682
 20
186.4516618168313
 30
0.0
 10
206.9259575595484
 20
186.4525638949939
 30
0.0
 10
206.9251827562022
 20
186.453478631241
 30
0.0
 10
206.9220853887295
 20
186.4571353969374
 30
0.0
 10
206.9192477222904
 20
186.4605742636228
 30
0.0
 10
206.9163641492491
 20
186.4639714253136
 30
0.0
 10
206.9115179843612
 20
186.4696807329915
 30
0.0
 10
206.9067269727239
 20
186.4751689857038
 30
0.0
 10
206.9019787559193
 20
186.4804686586976
 30
0.0
  0
SPLINE
  5
576
330
1F
100
AcDbEntity
  8
0
  6
Continuous
 62
     7
370
    15
100
AcDbSpline
210
0.0
220
0.0
230
1.0
 70
     8
 71
     3
 72
     8
 73
     4
 74
     0
 42
0.000000001
 43
0.00000001
 40
0.0
 40
0.0
 40
0.0
 40
0.0
 40
1.0
 40
1.0
 40
1.0
 40
1.0
 10
206.9294200794511
 20
186.4491597568793
 30
0.0
 10
207.0046582383885
 20
186.4058811113066
 30
0.0
 10
207.0544200794502
 20
186.3206278411854
 30
0.0
 10
207.0544200794502
 20
186.2334512116787
 30
0.0
  0
LINE
  5
577
330
1F
100
AcDbEntity
  8
0
  6
Continuous
 62
     7
370
    15
100
AcDbLine
 10
207.0544200794527
 20
186.2334518351842
 30
0.0
 11
207.0544200794527
 21
185.8461483039842
 31
0.0
  0
SPLINE
  5
579
330
1F
100
AcDbEntity
  8
0
  6
Continuous
 62
     7
370
    15
100
AcDbSpline
210
0.0
220
0.0
230
1.0
 70
     8
 71
     3
 72
     8
 73
     4
 74
     0
 42
0.000000001
 43
0.00000001
 40
0.0
 40
0.0
 40
0.0
 40
0.0
 40
1.0
 40
1.0
 40
1.0
 40
1.0
 10
206.9294200794503
 20
145.5546576958146
 30
0.0
 10
207.0046582383881
 20
145.597936341387
 30
0.0
 10
207.0544200794501
 20
145.6831896115089
 30
0.0
 10
207.0544200794502
 20
145.7703662410155
 30
0.0
  0
SPLINE
  5
57A
330
1F
100
AcDbEntity
  8
0
  6
Continuous
 62
     7
370
    15
100
AcDbSpline
210
0.0
220
0.0
230
1.0
 70
     8
 71
     3
 72
    59
 73
    55
 74
     0
 42
0.000000001
 43
0.00000001
 40
0.0
 40
0.0
 40
0.0
 40
0.0
 40
0.0000685364513456
 40
0.0000685364513456
 40
0.0000685364513456
 40
0.0001142220835967
 40
0.0001142220835967
 40
0.0001142220835967
 40
0.0001446573565434
 40
0.0001446573565434
 40
0.0001446573565434
 40
0.0001649262865027
 40
0.0001649262865027
 40
0.0001649262865027
 40
0.0001784232755225
 40
0.0001784232755225
 40
0.0001784232755225
 40
0.0001874117309258
 40
0.0001874117309258
 40
0.0001874117309258
 40
0.0001933997258754
 40
0.0001933997258754
 40
0.0001933997258754
 40
0.000197391530215
 40
0.000197391530215
 40
0.000197391530215
 40
0.000200055662888
 40
0.000200055662888
 40
0.000200055662888
 40
0.0002018369946159
 40
0.0002018369946159
 40
0.0002018369946159
 40
0.0002030315359764
 40
0.0002030315359764
 40
0.0002030315359764
 40
0.0002038362151122
 40
0.0002038362151122
 40
0.0002038362151122
 40
0.0002043820917534
 40
0.0002043820917534
 40
0.0002043820917534
 40
0.0002047564942673
 40
0.0002047564942673
 40
0.0002047564942673
 40
0.0002051420777489
 40
0.0002051420777489
 40
0.0002051420777489
 40
0.0002052975480408
 40
0.0002052975480408
 40
0.0002052975480408
 40
0.0002054278184703
 40
0.0002054278184703
 40
0.0002054278184703
 40
0.0002055082756234
 40
0.0002055082756234
 40
0.0002055082756234
 40
0.0002055082756234
 10
206.9019787558936
 20
145.5233487939798
 30
0.0
 10
206.90482203213
 20
145.5265222872956
 30
0.0
 10
206.907682468546
 20
145.5297643910465
 30
0.0
 10
206.9105587938148
 20
145.5330799232677
 30
0.0
 10
206.912476125245
 20
145.5352900259306
 30
0.0
 10
206.9144002933176
 20
145.5375326343379
 30
0.0
 10
206.9163345811004
 20
145.5398111946844
 30
0.0
 10
206.9176231842527
 20
145.5413291487715
 30
0.0
 10
206.9189160076891
 20
145.5428629093953
 30
0.0
 10
206.9202185176566
 20
145.5444160084653
 30
0.0
 10
206.921085948518
 20
145.5454503238238
 30
0.0
 10
206.921957383889
 20
145.5464930546138
 30
0.0
 10
206.9228396473411
 20
145.5475481579626
 30
0.0
 10
206.9234271424558
 20
145.5482507463577
 30
0.0
 10
206.9240191533037
 20
145.5489586632415
 30
0.0
 10
206.924623324849
 20
145.5496762228803
 30
0.0
 10
206.9250256784619
 20
145.5501540883399
 30
0.0
 10
206.9254331675661
 20
145.550636089411
 30
0.0
 10
206.925853725345
 20
145.551126664174
 30
0.0
 10
206.9261338947839
 20
145.5514534779031
 30
0.0
 10
206.926419645738
 20
145.5517839795327
 30
0.0
 10
206.9267186998972
 20
145.5521224674082
 30
0.0
 10
206.9269180586349
 20
145.5523481138789
 30
0.0
 10
206.9271231520488
 20
145.5525772175338
 30
0.0
 10
206.9273411177098
 20
145.5528137309162
 30
0.0
 10
206.9274865868073
 20
145.5529715786622
 30
0.0
 10
206.927637649905
 20
145.5531326584659
 30
0.0
 10
206.9278006577764
 20
145.5533004631323
 30
0.0
 10
206.9279096490042
 20
145.5534126616198
 30
0.0
 10
206.9280238740854
 20
145.5535278192906
 30
0.0
 10
206.928148841801
 20
145.5536489376272
 30
0.0
 10
206.9282326420394
 20
145.5537301565679
 30
0.0
 10
206.9283211969261
 20
145.5538140279913
 30
0.0
 10
206.9284192133994
 20
145.5539030837508
 30
0.0
 10
206.9284852380955
 20
145.5539630724368
 30
0.0
 10
206.9285555094747
 20
145.5540254047959
 30
0.0
 10
206.9286340170505
 20
145.5540921886414
 30
0.0
 10
206.9286872717651
 20
145.5541374906979
 30
0.0
 10
206.9287443026504
 20
145.5541848537855
 30
0.0
 10
206.9288084714214
 20
145.5542360081387
 30
0.0
 10
206.9288524779014
 20
145.5542710894248
 30
0.0
 10
206.9288998713592
 20
145.554307994777
 30
0.0
 10
206.9289534453834
 20
145.5543481030385
 30
0.0
 10
206.9290084283169
 20
145.5543892660818
 30
0.0
 10
206.9290699024418
 20
145.5544339774243
 30
0.0
 10
206.9291463537859
 20
145.55448591056
 30
0.0
 10
206.9291773338759
 20
145.5545069552288
 30
0.0
 10
206.9292112359257
 20
145.5545294655936
 30
0.0
 10
206.9292486937559
 20
145.5545534713452
 30
0.0
 10
206.9292799714139
 20
145.5545735163847
 30
0.0
 10
206.9293144796989
 20
145.5545950599694
 30
0.0
 10
206.9293507117822
 20
145.5546168681582
 30
0.0
 10
206.929373240541
 20
145.554630428279
 30
0.0
 10
206.9293967481328
 20
145.5546442750796
 30
0.0
 10
206.9294200796338
 20
145.554657695871
 30
0.0
  0
LINE
  5
57C
330
1F
100
AcDbEntity
  8
0
  6
Continuous
 62
     7
370
    15
100
AcDbLine
 10
207.0544200794527
 20
146.1576691486842
 30
0.0
 11
207.0544200794527
 21
145.7703656174842
 31
0.0
  0
SPLINE
  5
5B3
330
1F
100
AcDbEntity
  8
0
  6
Continuous
 62
     7
370
    15
100
AcDbSpline
210
0.0
220
0.0
230
1.0
 70
    24
 71
     3
 72
    12
 73
     8
 74
     0
 42
0.000000001
 43
0.00000001
 40
0.0
 40
0.0
 40
0.0
 40
0.0
 40
0.5000000000000098
 40
0.5000000000000098
 40
0.7500000000000049
 40
0.7500000000000049
 40
1.0
 40
1.0
 40
1.0
 40
1.0
 10
206.8044200794502
 20
129.090182983763
 30
0.0
 10
206.8044200794502
 20
128.9303620688757
 30
0.0
 10
206.8044200794502
 20
128.7712549070388
 30
0.0
 10
206.8044200794502
 20
128.5599221710229
 30
0.0
 10
206.8044200794502
 20
128.492835385638
 30
0.0
 10
206.8044200794502
 20
128.3729057706799
 30
0.0
 10
206.8044200794502
 20
128.3196576196429
 30
0.0
 10
206.8044200794502
 20
128.2733202629687
 30
0.0
  0
SPLINE
  5
5B6
330
1F
100
AcDbEntity
  8
0
  6
Continuous
 62
     7
370
    15
100
AcDbSpline
210
0.0
220
0.0
230
1.0
 70
    24
 71
     3
 72
    12
 73
     8
 74
     0
 42
0.000000001
 43
0.00000001
 40
0.0
 40
0.0
 40
0.0
 40
0.0
 40
0.2500000000000047
 40
0.2500000000000047
 40
0.5000000000000094
 40
0.5000000000000094
 40
1.0
 40
1.0
 40
1.0
 40
1.0
 10
206.8044200794502
 20
203.7304971897367
 30
0.0
 10
206.8044200794502
 20
203.6841237132708
 30
0.0
 10
206.8044200794502
 20
203.6308570424964
 30
0.0
 10
206.8044200794502
 20
203.5109724248194
 30
0.0
 10
206.8044200794502
 20
203.4438585397781
 30
0.0
 10
206.8044200794502
 20
203.2325053906207
 30
0.0
 10
206.8044200794502
 20
203.0733551533767
 30
0.0
 10
206.8044200794502
 20
202.9136344689317
 30
0.0
  0
SPLINE
  5
5B8
330
1F
100
AcDbEntity
  8
0
  6
Continuous
 62
     7
370
    15
100
AcDbSpline
210
0.0
220
0.0
230
1.0
 70
     8
 71
     3
 72
    14
 73
    10
 74
     0
 42
0.000000001
 43
0.00000001
 40
0.0
 40
0.0
 40
0.0
 40
0.0
 40
0.1428319515002125
 40
0.2855724446422752
 40
0.428281460044367
 40
0.5710189557634189
 40
0.7138447944535107
 40
0.8568186627705856
 40
1.0
 40
1.0
 40
1.0
 40
1.0
 10
170.1538355056692
 20
165.0612411926239
 30
0.0
 10
170.1447063027748
 20
165.1505352044647
 30
0.0
 10
170.1264537426103
 20
165.3290660512777
 30
0.0
 10
170.1098619815042
 20
165.5977441688305
 30
0.0
 10
170.1012064994791
 20
165.8667003209379
 30
0.0
 10
170.1012032108999
 20
166.13586861381
 30
0.0
 10
170.109853576528
 20
166.4050450942862
 30
0.0
 10
170.1264493193901
 20
166.6741631561154
 30
0.0
 10
170.1447023656208
 20
166.8530619902028
 30
0.0
 10
170.1538355056692
 20
166.9425762600707
 30
0.0
  0
ARC
  5
5D8
330
1F
100
AcDbEntity
  8
0
  6
Continuous
 62
     7
370
    15
100
AcDbCircle
 10
207.0544200794527
 20
128.2733202629842
 30
0.0
 40
0.25
100
AcDbArc
 50
179.9999999974987
 51
239.9999999999994
  0
ARC
  5
5D9
330
1F
100
AcDbEntity
  8
0
  6
Continuous
 62
     7
370
    15
100
AcDbCircle
 10
207.0544200794527
 20
203.7304971897842
 30
0.0
 40
0.25
100
AcDbArc
 50
120.0000000000006
 51
180.0
  0
LINE
  5
6B7
330
1F
100
AcDbEntity
  8
0
  6
Continuous
 62
     7
370
    15
100
AcDbLine
 10
197.8044199602527
 20
138.9019081958842
 30
0.0
 11
197.8044199602527
 21
140.2519086965842
 31
0.0
  0
ARC
  5
6B8
330
1F
100
AcDbEntity
  8
0
  6
Continuous
 62
     7
370
    15
100
AcDbCircle
 10
197.8044200794527
 20
135.7519087263842
 30
0.0
 40
3.150000000000006
100
AcDbArc
 50
90.0
 51
270.0
  0
LINE
  5
6B9
330
1F
100
AcDbEntity
  8
0
  6
Continuous
 62
     7
370
    15
100
AcDbLine
 10
197.8044199602527
 20
132.6019095846842
 30
0.0
 11
197.8044199602527
 21
131.2519090839842
 31
0.0
  0
ARC
  5
6BA
330
1F
100
AcDbEntity
  8
0
  6
Continuous
 62
     7
370
    15
100
AcDbCircle
 10
197.8044200794527
 20
135.7519087263842
 30
0.0
 40
4.500000000000028
100
AcDbArc
 50
167.0494311117999
 51
270.0
  0
SPLINE
  5
6BB
330
1F
100
AcDbEntity
  8
0
  6
Continuous
 62
     7
370
    15
100
AcDbSpline
210
0.0
220
0.0
230
1.0
 70
    24
 71
     3
 72
     8
 73
     4
 74
     0
 42
0.000000001
 43
0.00000001
 40
0.0
 40
0.0
 40
0.0
 40
0.0
 40
1.0
 40
1.0
 40
1.0
 40
1.0
 10
194.2128980541726
 20
138.4631758732634
 30
0.0
 10
193.9482263994415
 20
137.8955856780298
 30
0.0
 10
193.6835547447104
 20
137.3279954827963
 30
0.0
 10
193.4188830899794
 20
136.7604052875628
 30
0.0
  0
ARC
  5
6BC
330
1F
100
AcDbEntity
  8
0
  6
Continuous
 62
     7
370
    15
100
AcDbCircle
 10
197.8044200794527
 20
135.7519087263842
 30
0.0
 40
4.500000000000035
100
AcDbArc
 50
90.0
 51
142.9505688882
  0
SPLINE
  5
6CC
330
1F
100
AcDbEntity
  8
0
  6
Continuous
 62
     7
370
    15
100
AcDbSpline
210
0.0
220
0.0
230
1.0
 70
    24
 71
     3
 72
    11
 73
     7
 74
     0
 42
0.000000001
 43
0.00000001
 40
0.0
 40
0.0
 40
0.0
 40
0.0
 40
0.0002071751997602
 40
0.0002071751997602
 40
0.0002071751997602
 40
0.0004011522747206
 40
0.0004011522747206
 40
0.0004011522747206
 40
0.0004011522747206
 10
207.0544200794502
 20
186.250384279422
 30
0.0
 10
207.0544200794502
 20
186.250384279422
 30
0.0
 10
207.0544200794502
 20
186.2488774251796
 30
0.0
 10
207.0544200794502
 20
186.2458658666839
 30
0.0
 10
207.0544200794502
 20
186.2430461580098
 30
0.0
 10
207.0544200794502
 20
186.23890621351
 30
0.0
 10
207.0544200794502
 20
186.2334512116794
 30
0.0
  0
SPLINE
  5
6CF
330
1F
100
AcDbEntity
  8
0
  6
Continuous
 62
     7
370
    15
100
AcDbSpline
210
0.0
220
0.0
230
1.0
 70
    24
 71
     3
 72
    11
 73
     7
 74
     0
 42
0.000000001
 43
0.00000001
 40
0.000013329060721
 40
0.000013329060721
 40
0.000013329060721
 40
0.000013329060721
 40
0.0002073060762236
 40
0.0002073060762236
 40
0.0002073060762236
 40
0.0004144812137264
 40
0.0004144812137264
 40
0.0004144812137264
 40
0.0004144812137264
 10
207.0544200794502
 20
145.7703662409168
 30
0.0
 10
207.0544200794502
 20
145.7649112391348
 30
0.0
 10
207.0544200794502
 20
145.7607712946679
 30
0.0
 10
207.0544200794502
 20
145.7579515860107
 30
0.0
 10
207.0544200794502
 20
145.7549400275151
 30
0.0
 10
207.0544200794502
 20
145.7534331732727
 30
0.0
 10
207.0544200794502
 20
145.7534331732727
 30
0.0
  0
SPLINE
  5
6D0
330
1F
100
AcDbEntity
  8
0
  6
Continuous
 62
     7
370
    15
100
AcDbSpline
210
0.0
220
0.0
230
1.0
 70
     8
 71
     3
 72
     8
 73
     4
 74
     0
 42
0.000000001
 43
0.00000001
 40
0.0
 40
0.0
 40
0.0
 40
0.0
 40
1.0
 40
1.0
 40
1.0
 40
1.0
 10
206.9019787558936
 20
186.4804686587149
 30
0.0
 10
206.8410165101738
 20
186.5274144167327
 30
0.0
 10
206.8044200794502
 20
186.601854891919
 30
0.0
 10
206.8044200794502
 20
186.6787971927891
 30
0.0
  0
SPLINE
  5
6D1
330
1F
100
AcDbEntity
  8
0
  6
Continuous
 62
     7
370
    15
100
AcDbSpline
210
0.0
220
0.0
230
1.0
 70
     8
 71
     3
 72
     8
 73
     4
 74
     0
 42
0.000000001
 43
0.00000001
 40
0.0
 40
0.0
 40
0.0
 40
0.0
 40
1.0
 40
1.0
 40
1.0
 40
1.0
 10
206.8044200794502
 20
145.3250202599055
 30
0.0
 10
206.8044200794502
 20
145.4019629495376
 30
0.0
 10
206.8410163745445
 20
145.4764029315147
 30
0.0
 10
206.901978755895
 20
145.5233487939787
 30
0.0
  0
SPLINE
  5
6DC
330
1F
100
AcDbEntity
  8
0
  6
Continuous
 62
     7
370
    15
100
AcDbSpline
210
0.0
220
0.0
230
1.0
 70
     8
 71
     3
 72
     8
 73
     4
 74
     0
 42
0.000000001
 43
0.00000001
 40
0.0
 40
0.0
 40
0.0
 40
0.0
 40
1.0
 40
1.0
 40
1.0
 40
1.0
 10
171.4740108778035
 20
166.6603759999537
 30
0.0
 10
171.3815663151574
 20
166.2279063954163
 30
0.0
 10
171.3815663151574
 20
165.7759110572783
 30
0.0
 10
171.4740108778035
 20
165.3434414527409
 30
0.0
  0
LINE
  5
6DD
330
1F
100
AcDbEntity
  8
0
  6
Continuous
 62
     7
370
    15
100
AcDbLine
 10
171.4740122513527
 20
165.3434414307842
 30
0.0
 11
170.1538364248527
 21
165.0612412027842
 31
0.0
  0
LINE
  5
6DE
330
1F
100
AcDbEntity
  8
0
  6
Continuous
 62
     7
370
    15
100
AcDbLine
 10
171.4740122513527
 20
166.6603760218842
 30
0.0
 11
170.1538364248527
 21
166.9425762498842
 31
0.0
  0
ARC
  5
6DF
330
1F
100
AcDbEntity
  8
0
  6
Continuous
 62
     7
370
    15
100
AcDbCircle
 10
174.5544200794527
 20
166.0019087263842
 30
0.0
 40
3.150000000000007
100
AcDbArc
 50
192.0659374220999
 51
270.0
  0
LINE
  5
6E0
330
1F
100
AcDbEntity
  8
0
  6
Continuous
 62
     7
370
    15
100
AcDbLine
 10
174.5544212715527
 20
162.8519087222842
 30
0.0
 11
174.5544212715527
 21
161.5019089200842
 31
0.0
  0
ARC
  5
6E1
330
1F
100
AcDbEntity
  8
0
  6
Continuous
 62
     7
370
    15
100
AcDbCircle
 10
174.5544200794527
 20
166.0019087263842
 30
0.0
 40
4.500000000000039
100
AcDbArc
 50
192.0659374220998
 51
270.0
  0
ARC
  5
6E2
330
1F
100
AcDbEntity
  8
0
  6
Continuous
 62
     7
370
    15
100
AcDbCircle
 10
174.5544200794527
 20
166.0019087263842
 30
0.0
 40
3.150000000000007
100
AcDbArc
 50
90.0
 51
167.9340625779001
  0
ARC
  5
6E3
330
1F
100
AcDbEntity
  8
0
  6
Continuous
 62
     7
370
    15
100
AcDbCircle
 10
174.5544200794527
 20
166.0019087263842
 30
0.0
 40
4.500000000000039
100
AcDbArc
 50
90.0
 51
167.9340625778998
  0
LINE
  5
6E4
330
1F
100
AcDbEntity
  8
0
  6
Continuous
 62
     7
370
    15
100
AcDbLine
 10
174.5544212715527
 20
170.5019085325842
 30
0.0
 11
174.5544212715527
 21
169.1519087304842
 31
0.0
  0
LINE
  5
6EB
330
1F
100
AcDbEntity
  8
0
  6
Continuous
 62
     7
370
    15
100
AcDbLine
 10
199.3044202061527
 20
131.2519090839842
 30
0.0
 11
197.8044199602527
 21
131.2519090839842
 31
0.0
  0
ARC
  5
6EC
330
1F
100
AcDbEntity
  8
0
  6
Continuous
 62
     7
370
    15
100
AcDbCircle
 10
199.3044200794527
 20
135.7519087263842
 30
0.0
 40
4.500000000000028
100
AcDbArc
 50
270.0
 51
90.0
  0
LINE
  5
6ED
330
1F
100
AcDbEntity
  8
0
  6
Continuous
 62
     7
370
    15
100
AcDbLine
 10
197.8044199602527
 20
140.2519086965842
 30
0.0
 11
199.3044202061527
 21
140.2519086965842
 31
0.0
  0
ARC
  5
75C
330
1F
100
AcDbEntity
  8
0
  6
Continuous
 62
     7
370
    15
100
AcDbCircle
 10
176.0544200794527
 20
166.0019087263842
 30
0.0
 40
4.5
100
AcDbArc
 50
270.0
 51
90.0
  0
LINE
  5
75D
330
1F
100
AcDbEntity
  8
0
  6
Continuous
 62
     7
370
    15
100
AcDbLine
 10
174.5544212715527
 20
170.5019085325842
 30
0.0
 11
176.0544205860527
 21
170.5019085325842
 31
0.0
  0
LINE
  5
773
330
1F
100
AcDbEntity
  8
0
  6
Continuous
 62
     7
370
    15
100
AcDbLine
 10
176.0544205860527
 20
161.5019089200842
 30
0.0
 11
174.5544212715527
 21
161.5019089200842
 31
0.0
  0
LINE
  5
774
330
1F
100
AcDbEntity
  8
0
  6
Continuous
 62
     7
370
    15
100
AcDbLine
 10
197.8044199602527
 20
200.7519083686842
 30
0.0
 11
199.3044202061527
 21
200.7519083686842
 31
0.0
  0
ARC
  5
775
330
1F
100
AcDbEntity
  8
0
  6
Continuous
 62
     7
370
    15
100
AcDbCircle
 10
197.8044200794527
 20
196.2519087263842
 30
0.0
 40
4.5
100
AcDbArc
 50
90.0
 51
270.0
  0
LINE
  5
776
330
1F
100
AcDbEntity
  8
0
  6
Continuous
 62
     7
370
    15
100
AcDbLine
 10
199.3044202061527
 20
191.7519087561842
 30
0.0
 11
197.8044199602527
 21
191.7519087561842
 31
0.0
  0
ARC
  5
777
330
1F
100
AcDbEntity
  8
0
  6
Continuous
 62
     7
370
    15
100
AcDbCircle
 10
199.3044200794527
 20
196.2519087263842
 30
0.0
 40
4.5
100
AcDbArc
 50
270.0
 51
90.0
  0
LINE
  5
7D6
330
1F
100
AcDbEntity
  8
0
  6
HIDDEN
 62
     7
370
    15
100
AcDbLine
 10
206.8044200675527
 20
202.9136347242842
 30
0.0
 11
206.8044200675527
 21
186.6787972517842
 31
0.0
1001
PE_URL
1000

  0
LINE
  5
7D7
330
1F
100
AcDbEntity
  8
0
  6
HIDDEN
 62
     7
370
    15
100
AcDbLine
 10
206.8044200675527
 20
145.3250202008842
 30
0.0
 11
206.8044200675527
 21
129.0901827283842
 31
0.0
1001
PE_URL
1000

  0
LINE
  5
7F2
330
1F
100
AcDbEntity
  8
0
  6
Continuous
 62
     7
370
    15
100
AcDbLine
 10
197.8044199602527
 20
193.1019092567842
 30
0.0
 11
199.3044202061527
 21
193.1019092567842
 31
0.0
  0
LINE
  5
7F3
330
1F
100
AcDbEntity
  8
0
  6
Continuous
 62
     7
370
    15
100
AcDbLine
 10
199.3044202061527
 20
191.7519087561842
 30
0.0
 11
199.3044202061527
 21
193.1019092567842
 31
0.0
  0
LINE
  5
7F4
330
1F
100
AcDbEntity
  8
0
  6
Continuous
 62
     7
370
    15
100
AcDbLine
 10
197.8044199602527
 20
193.1019092567842
 30
0.0
 11
197.8044199602527
 21
191.7519087561842
 31
0.0
  0
LINE
  5
7FD
330
1F
100
AcDbEntity
  8
0
  6
Continuous
 62
     7
370
    15
100
AcDbLine
 10
199.3044202061527
 20
199.4019078680842
 30
0.0
 11
197.8044199602527
 21
199.4019078680842
 31
0.0
  0
LINE
  5
7FE
330
1F
100
AcDbEntity
  8
0
  6
Continuous
 62
     7
370
    15
100
AcDbLine
 10
197.8044199602527
 20
199.4019078680842
 30
0.0
 11
197.8044199602527
 21
200.7519083686842
 31
0.0
  0
LINE
  5
7FF
330
1F
100
AcDbEntity
  8
0
  6
Continuous
 62
     7
370
    15
100
AcDbLine
 10
199.3044202061527
 20
200.7519083686842
 30
0.0
 11
199.3044202061527
 21
199.4019078680842
 31
0.0
  0
ARC
  5
800
330
1F
100
AcDbEntity
  8
0
  6
Continuous
 62
     7
370
    15
100
AcDbCircle
 10
197.8044200794527
 20
196.2519087263842
 30
0.0
 40
3.150000000000006
100
AcDbArc
 50
90.0
 51
270.0
  0
ARC
  5
801
330
1F
100
AcDbEntity
  8
0
  6
Continuous
 62
     7
370
    15
100
AcDbCircle
 10
199.3044200794527
 20
196.2519087263842
 30
0.0
 40
3.150000000000006
100
AcDbArc
 50
270.0
 51
90.0
  0
LINE
  5
802
330
1F
100
AcDbEntity
  8
0
  6
Continuous
 62
     7
370
    15
100
AcDbLine
 10
199.3044202061527
 20
138.9019081958842
 30
0.0
 11
197.8044199602527
 21
138.9019081958842
 31
0.0
  0
LINE
  5
803
330
1F
100
AcDbEntity
  8
0
  6
Continuous
 62
     7
370
    15
100
AcDbLine
 10
199.3044202061527
 20
140.2519086965842
 30
0.0
 11
199.3044202061527
 21
138.9019081958842
 31
0.0
  0
LINE
  5
804
330
1F
100
AcDbEntity
  8
0
  6
Continuous
 62
     7
370
    15
100
AcDbLine
 10
199.3044202061527
 20
131.2519090839842
 30
0.0
 11
199.3044202061527
 21
132.6019095846842
 31
0.0
  0
ARC
  5
805
330
1F
100
AcDbEntity
  8
0
  6
Continuous
 62
     7
370
    15
100
AcDbCircle
 10
199.3044200794527
 20
135.7519087263842
 30
0.0
 40
3.150000000000006
100
AcDbArc
 50
270.0
 51
90.0
  0
LINE
  5
806
330
1F
100
AcDbEntity
  8
0
  6
Continuous
 62
     7
370
    15
100
AcDbLine
 10
197.8044199602527
 20
132.6019095846842
 30
0.0
 11
199.3044202061527
 21
132.6019095846842
 31
0.0
  0
LINE
  5
807
330
1F
100
AcDbEntity
  8
0
  6
Continuous
 62
     7
370
    15
100
AcDbLine
 10
176.0544205860527
 20
170.5019085325842
 30
0.0
 11
176.0544205860527
 21
169.1519087304842
 31
0.0
  0
LINE
  5
808
330
1F
100
AcDbEntity
  8
0
  6
Continuous
 62
     7
370
    15
100
AcDbLine
 10
176.0544205860527
 20
169.1519087304842
 30
0.0
 11
174.5544212715527
 21
169.1519087304842
 31
0.0
  0
LINE
  5
809
330
1F
100
AcDbEntity
  8
0
  6
Continuous
 62
     7
370
    15
100
AcDbLine
 10
176.0544205860527
 20
161.5019089200842
 30
0.0
 11
176.0544205860527
 21
162.8519087222842
 31
0.0
  0
ARC
  5
80A
330
1F
100
AcDbEntity
  8
0
  6
Continuous
 62
     7
370
    15
100
AcDbCircle
 10
176.0544200794527
 20
166.0019087263842
 30
0.0
 40
3.150000000000006
100
AcDbArc
 50
270.0
 51
90.0
  0
LINE
  5
80B
330
1F
100
AcDbEntity
  8
0
  6
Continuous
 62
     7
370
    15
100
AcDbLine
 10
174.5544212715527
 20
162.8519087222842
 30
0.0
 11
176.0544205860527
 21
162.8519087222842
 31
0.0
  0
SPLINE
  5
836
330
1F
100
AcDbEntity
  8
0
  6
Continuous
 62
     7
370
    15
100
AcDbSpline
210
0.0
220
0.0
230
1.0
 70
    24
 71
     3
 72
    12
 73
     8
 74
     0
 42
0.000000001
 43
0.00000001
 40
0.0
 40
0.0
 40
0.0
 40
0.0
 40
0.1419995706799945
 40
0.3564963613034002
 40
0.5709976069915308
 40
0.7854980212427775
 40
1.0
 40
1.0
 40
1.0
 40
1.0
 10
207.0544200794502
 20
213.741731143845
 30
0.0
 10
207.0544200794502
 20
213.7419896491552
 30
0.0
 10
207.0544200794502
 20
213.7426386384589
 30
0.0
 10
207.0544200794502
 20
213.6473208686279
 30
0.0
 10
207.0544200794502
 20
213.4793004231642
 30
0.0
 10
207.0544200794502
 20
213.2541201632543
 30
0.0
 10
207.0544200794502
 20
213.0855362695838
 30
0.0
 10
207.0544200794502
 20
213.0012440153488
 30
0.0
  0
LINE
  5
841
330
1F
100
AcDbEntity
  8
SLD-0
100
AcDbLine
 10
199.3044200794527
 20
196.2519087263842
 30
0.0
 11
197.8044200794527
 21
196.2519087263842
 31
0.0
  0
LINE
  5
842
330
1F
100
AcDbEntity
  8
SLD-0
100
AcDbLine
 10
176.0544200794527
 20
166.0019087263842
 30
0.0
 11
174.5544200794527
 21
166.0019087263842
 31
0.0
  0
LINE
  5
843
330
1F
100
AcDbEntity
  8
SLD-0
100
AcDbLine
 10
199.3044200794527
 20
135.7519087263842
 30
0.0
 11
197.8044200794527
 21
135.7519087263842
 31
0.0
  0
LINE
  5
845
102
{ACAD_REACTORS
330
149B
102
}
330
1F
100
AcDbEntity
  8
SLD-0
100
AcDbLine
 10
198.5544200794527
 20
196.2519087263842
 30
0.0
 11
198.5544200794527
 21
195.5881124272842
 31
0.0
  0
LINE
  5
846
102
{ACAD_REACTORS
330
148B
102
}
330
1F
100
AcDbEntity
  8
SLD-0
100
AcDbLine
 10
175.3044200794527
 20
166.0019087263842
 30
0.0
 11
175.3044200794527
 21
167.3739638637842
 31
0.0
  0
LINE
  5
847
330
1F
100
AcDbEntity
  8
SLD-0
100
AcDbLine
 10
198.5544200794527
 20
135.7519087263842
 30
0.0
 11
198.5544200794527
 21
136.9021004299842
 31
0.0
  0
LINE
  5
8AD
102
{ACAD_REACTORS
330
13C9
102
}
330
1F
100
AcDbEntity
  8
0
  6
Continuous
 62
     7
370
    15
100
AcDbLine
 10
78.65067487045613
 20
165.1515327229886
 30
0.0
 11
72.35067487045612
 21
165.1515327229886
 31
0.0
  0
LINE
  5
8AE
330
1F
100
AcDbEntity
  8
0
  6
Continuous
 62
     7
370
    15
100
AcDbLine
 10
72.35067487045612
 20
169.8044585307886
 30
0.0
 11
72.35067487045612
 21
165.1515327229886
 31
0.0
  0
LINE
  5
8AF
330
1F
100
AcDbEntity
  8
0
  6
Continuous
 62
     7
370
    15
100
AcDbLine
 10
78.65067487045613
 20
169.8044585307886
 30
0.0
 11
72.35067487045612
 21
169.8044585307886
 31
0.0
  0
LINE
  5
8B0
102
{ACAD_REACTORS
330
13B6
102
}
330
1F
100
AcDbEntity
  8
0
  6
Continuous
 62
     7
370
    15
100
AcDbLine
 10
78.65067487045613
 20
169.8044585307886
 30
0.0
 11
78.65067487045613
 21
165.1515327229886
 31
0.0
  0
LINE
  5
8B1
330
1F
100
AcDbEntity
  8
0
  6
Continuous
 62
     7
370
    15
100
AcDbLine
 10
69.35067487045612
 20
169.8044585307886
 30
0.0
 11
63.05067487045611
 21
169.8044585307886
 31
0.0
  0
LINE
  5
8B2
330
1F
100
AcDbEntity
  8
0
  6
Continuous
 62
     7
370
    15
100
AcDbLine
 10
69.35067487045612
 20
169.8044585307886
 30
0.0
 11
69.35067487045612
 21
165.1515327229886
 31
0.0
  0
LINE
  5
8B3
330
1F
100
AcDbEntity
  8
0
  6
Continuous
 62
     7
370
    15
100
AcDbLine
 10
69.35067487045612
 20
165.1515327229886
 30
0.0
 11
63.05067487045611
 21
165.1515327229886
 31
0.0
  0
LINE
  5
8B4
330
1F
100
AcDbEntity
  8
0
  6
Continuous
 62
     7
370
    15
100
AcDbLine
 10
63.05067487045611
 20
165.1515327229886
 30
0.0
 11
63.05067487045611
 21
169.8044585307886
 31
0.0
  0
LINE
  5
8B9
330
1F
100
AcDbEntity
  8
0
  6
Continuous
 62
     7
370
    15
100
AcDbLine
 10
86.85067487045612
 20
165.1515327229886
 30
0.0
 11
78.65067487045613
 21
165.1515327229886
 31
0.0
  0
LINE
  5
8BA
102
{ACAD_REACTORS
330
13B6
102
}
330
1F
100
AcDbEntity
  8
0
  6
Continuous
 62
     7
370
    15
100
AcDbLine
 10
81.35067487045612
 20
172.1515327229886
 30
0.0
 11
78.65067487045613
 21
169.8044585307886
 31
0.0
  0
LINE
  5
8BC
330
1F
100
AcDbEntity
  8
0
  6
Continuous
 62
     7
370
    15
100
AcDbLine
 10
81.35067487045612
 20
172.1515327229886
 30
0.0
 11
86.85067487045615
 21
172.1515327229886
 31
0.0
  0
LINE
  5
8C7
330
1F
100
AcDbEntity
  8
0
  6
Continuous
 62
     7
370
    15
100
AcDbLine
 10
63.05067487045611
 20
169.8044585307886
 30
0.0
 11
60.35067487045612
 21
172.1515327229886
 31
0.0
  0
LINE
  5
8D0
102
{ACAD_REACTORS
330
13C9
330
1406
102
}
330
1F
100
AcDbEntity
  8
0
  6
Continuous
 62
     7
370
    15
100
AcDbLine
 10
63.05067487045611
 20
165.1515327229886
 30
0.0
 11
54.7234062876561
 21
165.1515327229886
 31
0.0
  0
LINE
  5
8D1
102
{ACAD_REACTORS
330
1406
102
}
330
1F
100
AcDbEntity
  8
0
  6
Continuous
 62
     7
370
    15
100
AcDbLine
 10
54.72340628765612
 20
172.1515327229886
 30
0.0
 11
60.35067487045612
 21
172.1515327229886
 31
0.0
  0
LINE
  5
8DA
330
1F
100
AcDbEntity
  8
0
  6
Continuous
 62
     7
370
    15
100
AcDbLine
 10
69.35067487045612
 20
169.8044585307886
 30
0.0
 11
69.35067487045612
 21
172.1515327229886
 31
0.0
  0
LINE
  5
8DB
330
1F
100
AcDbEntity
  8
0
  6
Continuous
 62
     7
370
    15
100
AcDbLine
 10
60.35067487045612
 20
172.1515327229886
 30
0.0
 11
69.35067487045612
 21
172.1515327229886
 31
0.0
  0
LINE
  5
8DC
330
1F
100
AcDbEntity
  8
0
  6
Continuous
 62
     7
370
    15
100
AcDbLine
 10
72.35067487045612
 20
172.1515327229886
 30
0.0
 11
72.35067487045612
 21
169.8044585307886
 31
0.0
  0
LINE
  5
8DD
330
1F
100
AcDbEntity
  8
0
  6
Continuous
 62
     7
370
    15
100
AcDbLine
 10
72.35067487045612
 20
172.1515327229886
 30
0.0
 11
81.35067487045612
 21
172.1515327229886
 31
0.0
  0
LINE
  5
8EA
330
1F
100
AcDbEntity
  8
0
  6
Continuous
 62
     7
370
    15
100
AcDbLine
 10
72.35067487045612
 20
169.8044585307886
 30
0.0
 11
69.35067487045612
 21
169.8044585307886
 31
0.0
  0
LINE
  5
8EB
330
1F
100
AcDbEntity
  8
0
  6
Continuous
 62
     7
370
    15
100
AcDbLine
 10
69.35067487045612
 20
172.1515327229886
 30
0.0
 11
72.35067487045612
 21
172.1515327229886
 31
0.0
  0
LINE
  5
8EC
330
1F
100
AcDbEntity
  8
0
  6
Continuous
 62
     7
370
    15
100
AcDbLine
 10
72.35067487045612
 20
165.1515327229886
 30
0.0
 11
69.35067487045612
 21
165.1515327229886
 31
0.0
  0
LINE
  5
11FB
330
1F
100
AcDbEntity
  8
0
  6
Continuous
 62
     7
370
    15
100
AcDbLine
 10
332.723992931221
 20
108.7504496685842
 30
0.0
 11
333.723992931221
 21
108.7504496685842
 31
0.0
  0
LWPOLYLINE
  5
11FC
330
1F
100
AcDbEntity
  8
0
  6
Continuous
 62
     7
370
    15
100
AcDbPolyline
 90
        3
 70
   128
 43
0.0
 10
323.131556327421
 20
108.9180025394842
 10
331.523435123121
 20
108.7714199972842
 10
332.723992931221
 20
108.7504496685842
  0
LINE
  5
11FD
330
1F
100
AcDbEntity
  8
0
  6
Continuous
 62
     7
370
    15
100
AcDbLine
 10
320.945439540621
 20
111.1057026285842
 30
0.0
 11
323.131556327421
 21
108.9180025394842
 31
0.0
  0
SPLINE
  5
11FE
330
1F
100
AcDbEntity
  8
0
  6
Continuous
 62
     7
370
    15
100
AcDbSpline
210
0.0
220
0.0
230
1.0
 70
     8
 71
     3
 72
    10
 73
     6
 74
     0
 42
0.000000001
 43
0.00000001
 40
0.0
 40
0.0
 40
0.0
 40
0.0
 40
0.5
 40
0.5
 40
1.0
 40
1.0
 40
1.0
 40
1.0
 10
320.9454395405942
 20
111.1057026285607
 30
0.0
 10
320.8992394954536
 20
111.1519374706391
 30
0.0
 10
320.8622326958885
 20
111.2072226141166
 30
0.0
 10
320.8119194808805
 20
111.3287403179058
 30
0.0
 10
320.7989929311876
 20
111.3936988398239
 30
0.0
 10
320.7989929311876
 20
111.4595240396626
 30
0.0
  0
LINE
  5
1208
330
1F
100
AcDbEntity
  8
0
  6
Continuous
 62
     7
370
    15
100
AcDbLine
 10
320.798992931221
 20
140.8289057819842
 30
0.0
 11
320.798992931221
 21
111.4595240396842
 31
0.0
  0
SPLINE
  5
120F
330
1F
100
AcDbEntity
  8
0
  6
Continuous
 62
     7
370
    15
100
AcDbSpline
210
0.0
220
0.0
230
1.0
 70
     8
 71
     3
 72
    10
 73
     6
 74
     0
 42
0.000000001
 43
0.00000001
 40
0.0
 40
0.0
 40
0.0
 40
0.0
 40
0.5
 40
0.5
 40
1.0
 40
1.0
 40
1.0
 40
1.0
 10
320.7989929311876
 20
220.2622934130321
 30
0.0
 10
320.7989929311876
 20
220.3273713606693
 30
0.0
 10
320.8118732936559
 20
220.392998834772
 30
0.0
 10
320.8623528309599
 20
220.5148516904787
 30
0.0
 10
320.8991082870686
 20
220.569748674847
 30
0.0
 10
320.9454395405943
 20
220.616114824134
 30
0.0
  0
LINE
  5
1210
330
1F
100
AcDbEntity
  8
0
  6
Continuous
 62
     7
370
    15
100
AcDbLine
 10
323.131556327421
 20
222.8038149131842
 30
0.0
 11
320.945439540621
 21
220.6161148240842
 31
0.0
  0
LWPOLYLINE
  5
1211
330
1F
100
AcDbEntity
  8
0
  6
Continuous
 62
     7
370
    15
100
AcDbPolyline
 90
        3
 70
   128
 43
0.0
 10
332.723992931221
 20
222.9713677841842
 10
331.523435123121
 20
222.9503974553842
 10
323.131556327421
 20
222.8038149131842
  0
LINE
  5
1212
330
1F
100
AcDbEntity
  8
0
  6
Continuous
 62
     7
370
    15
100
AcDbLine
 10
333.723992931221
 20
222.9713677841842
 30
0.0
 11
332.723992931221
 21
222.9713677841842
 31
0.0
  0
LINE
  5
121D
330
1F
100
AcDbEntity
  8
0
  6
Continuous
 62
     7
370
    15
100
AcDbLine
 10
320.798992931221
 20
220.2622934129842
 30
0.0
 11
320.798992931221
 21
190.8929116706842
 31
0.0
  0
LINE
  5
1366
330
1F
100
AcDbEntity
  8
0
100
AcDbLine
 10
333.723992931221
 20
222.9713677841842
 30
0.0
 11
333.723992931221
 21
235.7196381369842
 31
0.0
1001
PE_URL
1000

  0
LINE
  5
1369
330
1F
100
AcDbEntity
  8
0
100
AcDbLine
 10
333.723992931221
 20
108.7504496685842
 30
0.0
 11
333.723992931221
 21
95.71963813698422
 31
0.0
1001
PE_URL
1000

  0
LINE
  5
13A6
330
1F
100
AcDbEntity
  8
0
100
AcDbLine
 10
206.9294200794527
 20
203.9470035407303
 30
0.0
 11
206.9406492501365
 21
203.954640298208
 31
0.0
  0
LINE
  5
13A7
330
1F
100
AcDbEntity
  8
0
100
AcDbLine
 10
207.0544200794989
 20
118.2525644668543
 30
0.0
 11
207.0544200794527
 21
119.0025734373842
 31
0.0
  0
LINE
  5
13A8
330
1F
100
AcDbEntity
  8
0
100
AcDbLine
 10
206.9294200794527
 20
128.0568139120381
 30
0.0
 11
206.9444021952958
 21
128.046690129797
 31
0.0
  0
LINE
  5
13A9
330
1F
100
AcDbEntity
  8
0
100
AcDbLine
 10
333.723992931221
 20
108.7504496685842
 30
0.0
 11
333.723992931221
 21
222.9713677841842
 31
0.0
  0
LINE
  5
13AA
330
1F
100
AcDbEntity
  8
0
100
AcDbLine
 10
320.798992931221
 20
190.8929116706842
 30
0.0
 11
320.798992931221
 21
140.8289057819842
 31
0.0
  0
LINE
  5
13AD
102
{ACAD_REACTORS
330
1477
102
}
330
1F
100
AcDbEntity
  8
0
100
AcDbLine
 10
333.723992931221
 20
235.7196381369842
 30
0.0
 11
320.798992931221
 21
235.7196381369842
 31
0.0
1001
PE_URL
1000

  0
LINE
  5
13AE
330
1F
100
AcDbEntity
  8
0
100
AcDbLine
 10
333.723992931221
 20
95.71963813698422
 30
0.0
 11
320.9454395405942
 21
95.71963813698422
 31
0.0
1001
PE_URL
1000

  0
DIMENSION
  5
13B4
102
{ACAD_REACTORS
330
13B6
102
}
102
{ACAD_XDICTIONARY
360
13B5
102
}
330
1F
100
AcDbEntity
  8
0
100
AcDbDimension
280
     0
  2
*D19
 10
78.65067487045613
 20
169.8044585307886
 30
0.0
 11
88.44593506210575
 21
191.298195336595
 31
0.0
 70
    34
  1
<>
 71
     5
 42
0.8552113334569253
 73
     0
 74
     0
 75
     0
  3
ISO-25
100
AcDb2LineAngularDimension
 13
78.65067487045613
 23
169.8044585307886
 33
0.0
 14
78.65067487045613
 24
165.1515327229886
 34
0.0
 15
81.35067487045612
 25
172.1515327229886
 35
0.0
 16
91.39985327372702
 26
189.6887813540824
 36
0.0
1001
ACAD
1000
DSTYLE
1002
{
1070
   179
1070
     0
1070
    41
1040
3.302
1070
   271
1070
     3
1070
    44
1040
1.0
1070
    42
1040
1.0
1070
   147
1040
1.524
1070
   272
1070
     3
1070
    73
1070
     1
1070
    74
1070
     1
1070
   140
1040
3.5
1070
   284
1070
     0
1070
    78
1070
     0
1002
}
  0
DIMENSION
  5
13C7
102
{ACAD_REACTORS
330
13C9
102
}
102
{ACAD_XDICTIONARY
360
13C8
102
}
330
1F
100
AcDbEntity
  8
0
100
AcDbDimension
280
     0
  2
*D20
 10
78.65067487045613
 20
151.6837726557118
 30
0.0
 11
70.85067487045612
 21
154.9577726557118
 31
0.0
 70
    32
  1
7.8
 71
     5
 42
15.60000000000002
 73
     0
 74
     0
 75
     0
  3
ISO-25
100
AcDbAlignedDimension
 13
63.05067487045611
 23
165.1515327229886
 33
0.0
 14
78.65067487045613
 24
165.1515327229886
 34
0.0
100
AcDbRotatedDimension
1001
ACAD
1000
DSTYLE
1002
{
1070
   144
1040
1.0
1070
   179
1070
     2
1070
    41
1040
3.302
1070
   271
1070
     3
1070
    44
1040
1.0
1070
    42
1040
1.0
1070
   147
1040
1.524
1070
   272
1070
     3
1070
    73
1070
     1
1070
    74
1070
     1
1070
   140
1040
3.5
1070
   284
1070
     0
1070
    78
1070
     0
1002
}
  0
LINE
  5
13EB
330
1F
100
AcDbEntity
  8
0
  6
Continuous
 62
     7
370
    15
100
AcDbLine
 10
69.35067463205618
 20
118.4041484860032
 30
0.0
 11
72.35067512385618
 21
118.4041484860032
 31
0.0
  0
ARC
  5
13EC
330
1F
100
AcDbEntity
  8
0
  6
Continuous
 62
     7
370
    15
100
AcDbCircle
 10
69.35067487045617
 20
109.4041492014032
 30
0.0
 40
9.0
100
AcDbArc
 50
90.0
 51
270.0
  0
LINE
  5
13ED
330
1F
100
AcDbEntity
  8
0
  6
Continuous
 62
     7
370
    15
100
AcDbLine
 10
72.35067512385618
 20
100.4041492610032
 30
0.0
 11
69.35067463205618
 21
100.4041492610032
 31
0.0
  0
ARC
  5
13EE
330
1F
100
AcDbEntity
  8
0
  6
Continuous
 62
     7
370
    15
100
AcDbCircle
 10
72.35067487045617
 20
109.4041492014032
 30
0.0
 40
9.0
100
AcDbArc
 50
270.0
 51
90.0
  0
LINE
  5
13EF
330
1F
100
AcDbEntity
  8
0
  6
Continuous
 62
     7
370
    15
100
AcDbLine
 10
69.35067463205618
 20
103.1041502622032
 30
0.0
 11
72.35067512385618
 21
103.1041502622032
 31
0.0
  0
LINE
  5
13F0
330
1F
100
AcDbEntity
  8
0
  6
Continuous
 62
     7
370
    15
100
AcDbLine
 10
72.35067512385618
 20
100.4041492610032
 30
0.0
 11
72.35067512385618
 21
103.1041502622032
 31
0.0
  0
LINE
  5
13F1
330
1F
100
AcDbEntity
  8
0
  6
Continuous
 62
     7
370
    15
100
AcDbLine
 10
69.35067463205618
 20
103.1041502622032
 30
0.0
 11
69.35067463205618
 21
100.4041492610032
 31
0.0
  0
LINE
  5
13F2
330
1F
100
AcDbEntity
  8
0
  6
Continuous
 62
     7
370
    15
100
AcDbLine
 10
72.35067512385618
 20
115.7041474848032
 30
0.0
 11
69.35067463205618
 21
115.7041474848032
 31
0.0
  0
LINE
  5
13F3
330
1F
100
AcDbEntity
  8
0
  6
Continuous
 62
     7
370
    15
100
AcDbLine
 10
69.35067463205618
 20
115.7041474848032
 30
0.0
 11
69.35067463205618
 21
118.4041484860032
 31
0.0
  0
LINE
  5
13F4
330
1F
100
AcDbEntity
  8
0
  6
Continuous
 62
     7
370
    15
100
AcDbLine
 10
72.35067512385618
 20
118.4041484860032
 30
0.0
 11
72.35067512385618
 21
115.7041474848032
 31
0.0
  0
ARC
  5
13F5
330
1F
100
AcDbEntity
  8
0
  6
Continuous
 62
     7
370
    15
100
AcDbCircle
 10
69.35067487045617
 20
109.4041492014032
 30
0.0
 40
6.300000000000012
100
AcDbArc
 50
90.0
 51
270.0
  0
ARC
  5
13F6
330
1F
100
AcDbEntity
  8
0
  6
Continuous
 62
     7
370
    15
100
AcDbCircle
 10
72.35067487045617
 20
109.4041492014032
 30
0.0
 40
6.300000000000012
100
AcDbArc
 50
270.0
 51
90.0
  0
LINE
  5
13F7
330
1F
100
AcDbEntity
  8
SLD-0
100
AcDbLine
 10
72.35067487045617
 20
109.4041492014032
 30
0.0
 11
69.35067487045617
 21
109.4041492014032
 31
0.0
  0
LINE
  5
13F8
330
1F
100
AcDbEntity
  8
SLD-0
100
AcDbLine
 10
70.85067487045617
 20
109.4041492014032
 30
0.0
 11
70.85067487045617
 21
108.0765566032032
 31
0.0
  0
DIMENSION
  5
1404
102
{ACAD_REACTORS
330
1406
102
}
102
{ACAD_XDICTIONARY
360
1405
102
}
330
1F
100
AcDbEntity
  8
0
100
AcDbDimension
280
     0
  2
*D22
 10
41.02777073212431
 20
165.1515327229886
 30
0.0
 11
41.02777073212431
 21
168.6515327229886
 31
0.0
 70
    32
  1
3.5
 71
     5
 42
7.0
 73
     0
 74
     0
 75
     0
  3
ISO-25
100
AcDbAlignedDimension
 13
54.72340628765612
 23
172.1515327229886
 33
0.0
 14
54.7234062876561
 24
165.1515327229886
 34
0.0
 50
90.0
100
AcDbRotatedDimension
1001
ACAD
1000
DSTYLE
1002
{
1070
   280
1070
     2
1070
   144
1040
1.0
1070
   179
1070
     2
1070
    41
1040
3.302
1070
   271
1070
     3
1070
    44
1040
1.0
1070
    42
1040
1.0
1070
   147
1040
1.524
1070
   272
1070
     3
1070
    73
1070
     1
1070
    74
1070
     1
1070
   140
1040
3.5
1070
   284
1070
     0
1070
    78
1070
     0
1002
}
  0
LINE
  5
1417
330
1F
100
AcDbEntity
  8
0
100
AcDbLine
 10
55.77898150175335
 20
172.1515327229886
 30
0.0
 11
54.7234062876561
 21
171.0959575088914
 31
0.0
  0
LINE
  5
1418
330
1F
100
AcDbEntity
  8
0
100
AcDbLine
 10
58.65217281027005
 20
172.1962969067591
 30
0.0
 11
54.72340628765612
 21
168.2675303841452
 31
0.0
  0
LINE
  5
1419
330
1F
100
AcDbEntity
  8
0
100
AcDbLine
 10
60.93119623125958
 20
171.6468932030024
 30
0.0
 11
54.7234062876561
 21
165.439103259399
 31
0.0
  0
LINE
  5
141A
330
1F
100
AcDbEntity
  8
0
100
AcDbLine
 10
62.44430123942786
 20
170.3315710864245
 30
0.0
 11
57.26426287599195
 21
165.1515327229886
 31
0.0
  0
LINE
  5
141B
330
1F
100
AcDbEntity
  8
0
100
AcDbLine
 10
63.05067487045611
 20
168.1095175927066
 30
0.0
 11
60.09269000073814
 21
165.1515327229886
 31
0.0
  0
LINE
  5
141E
330
1F
100
AcDbEntity
  8
0
100
AcDbLine
 10
83.42271243369116
 20
172.1515327229886
 30
0.0
 11
78.65067487045613
 21
167.3794951597536
 31
0.0
  0
LINE
  5
141F
330
1F
100
AcDbEntity
  8
0
100
AcDbLine
 10
86.25113955843736
 20
172.1515327229886
 30
0.0
 11
79.25113955843736
 21
165.1515327229886
 31
0.0
  0
LINE
  5
1420
330
1F
100
AcDbEntity
  8
0
100
AcDbLine
 10
86.85067487045613
 20
169.9226409102612
 30
0.0
 11
82.07956668318356
 21
165.1515327229886
 31
0.0
  0
LINE
  5
1421
330
1F
100
AcDbEntity
  8
0
100
AcDbLine
 10
86.85067487045612
 20
167.094213785515
 30
0.0
 11
84.90799380792976
 21
165.1515327229886
 31
0.0
  0
LINE
  5
1437
330
1F
100
AcDbEntity
  8
0
100
AcDbLine
 10
327.4027319517525
 20
271.2036123825574
 30
0.0
 11
320.7989929312211
 21
265.402196794427
 31
0.0
  0
LINE
  5
1438
330
1F
100
AcDbEntity
  8
0
100
AcDbLine
 10
333.1901930575566
 20
269.6325305932825
 30
0.0
 11
320.7989929312211
 21
258.7468033794923
 31
0.0
  0
LINE
  5
1439
330
1F
100
AcDbEntity
  8
0
100
AcDbLine
 10
336.4901657944268
 20
265.8761786481217
 30
0.0
 11
320.7989929312211
 21
252.0914099645577
 31
0.0
  0
LINE
  5
143A
330
1F
100
AcDbEntity
  8
0
100
AcDbLine
 10
339.7901385312971
 20
262.1198267029609
 30
0.0
 11
320.798992931221
 21
245.4360165496231
 31
0.0
  0
LINE
  5
143B
330
1F
100
AcDbEntity
  8
0
100
AcDbLine
 10
343.0901112681673
 20
258.3634747578002
 30
0.0
 11
320.798992931221
 21
238.7806231346885
 31
0.0
  0
LINE
  5
143C
330
1F
100
AcDbEntity
  8
0
100
AcDbLine
 10
344.435256529893
 20
252.8897977410171
 30
0.0
 11
324.8905003848768
 21
235.7196381369842
 31
0.0
  0
LINE
  5
143D
330
1F
100
AcDbEntity
  8
0
100
AcDbLine
 10
345.5811142357659
 20
247.241045675167
 30
0.0
 11
332.4663205486854
 21
235.7196381369842
 31
0.0
  0
LINE
  5
143E
330
1F
100
AcDbEntity
  8
0
100
AcDbLine
 10
346.3338438173367
 20
241.2469287150703
 30
0.0
 11
333.723992931221
 21
230.1691157870808
 31
0.0
  0
LINE
  5
143F
330
1F
100
AcDbEntity
  8
0
100
AcDbLine
 10
346.7746566761768
 20
234.9787914564998
 30
0.0
 11
333.723992931221
 21
223.5137223721462
 31
0.0
  0
LINE
  5
1440
330
1F
100
AcDbEntity
  8
0
100
AcDbLine
 10
346.9717349480728
 20
228.4965322243524
 30
0.0
 11
333.723992931221
 21
216.8583289572116
 31
0.0
  0
LINE
  5
1441
330
1F
100
AcDbEntity
  8
0
100
AcDbLine
 10
346.9719914971561
 20
221.8413641889862
 30
0.0
 11
333.723992931221
 21
210.2029355422769
 31
0.0
  0
LINE
  5
1442
330
1F
100
AcDbEntity
  8
0
100
AcDbLine
 10
346.8484502867954
 20
215.0774392434543
 30
0.0
 11
333.723992931221
 21
203.5475421273423
 31
0.0
  0
LINE
  5
1443
330
1F
100
AcDbEntity
  8
0
100
AcDbLine
 10
346.7131730553519
 20
208.30320414856
 30
0.0
 11
333.723992931221
 21
196.8921487124077
 31
0.0
  0
LINE
  5
1444
330
1F
100
AcDbEntity
  8
0
100
AcDbLine
 10
346.7032111995555
 20
201.6390591967575
 30
0.0
 11
333.723992931221
 21
190.236755297473
 31
0.0
  0
LINE
  5
1445
330
1F
100
AcDbEntity
  8
0
100
AcDbLine
 10
346.9504808888296
 20
195.200893359316
 30
0.0
 11
333.723992931221
 21
183.5813618825384
 31
0.0
  0
LINE
  5
1446
330
1F
100
AcDbEntity
  8
0
100
AcDbLine
 10
347.5510632655946
 20
189.0731143688291
 30
0.0
 11
333.723992931221
 21
176.9259684676038
 31
0.0
  0
LINE
  5
1447
330
1F
100
AcDbEntity
  8
0
100
AcDbLine
 10
348.5516235016681
 20
183.2967177968002
 30
0.0
 11
333.723992931221
 21
170.2705750526691
 31
0.0
  0
LINE
  5
1448
330
1F
100
AcDbEntity
  8
0
100
AcDbLine
 10
349.9274143293717
 20
177.8499630529322
 30
0.0
 11
333.723992931221
 21
163.6151816377345
 31
0.0
  0
LINE
  5
1449
330
1F
100
AcDbEntity
  8
0
100
AcDbLine
 10
351.543244167169
 20
172.6140837011093
 30
0.0
 11
333.723992931221
 21
156.9597882227999
 31
0.0
  0
LINE
  5
144A
330
1F
100
AcDbEntity
  8
0
100
AcDbLine
 10
353.2800060946201
 20
167.4844437551504
 30
0.0
 11
333.723992931221
 21
150.3043948078652
 31
0.0
  0
LINE
  5
144B
330
1F
100
AcDbEntity
  8
0
100
AcDbLine
 10
355.042932028041
 20
162.3777890106976
 30
0.0
 11
333.723992931221
 21
143.6490013929306
 31
0.0
  0
LINE
  5
144C
330
1F
100
AcDbEntity
  8
0
100
AcDbLine
 10
356.7441395106754
 20
157.2169143188249
 30
0.0
 11
333.723992931221
 21
136.9936079779959
 31
0.0
  0
LINE
  5
144D
330
1F
100
AcDbEntity
  8
0
100
AcDbLine
 10
358.2888645546621
 20
151.9185690733739
 30
0.0
 11
333.723992931221
 21
130.3382145630613
 31
0.0
  0
LINE
  5
144E
330
1F
100
AcDbEntity
  8
0
100
AcDbLine
 10
359.5587405486586
 20
146.3787676531652
 30
0.0
 11
333.723992931221
 21
123.6828211481266
 31
0.0
  0
LINE
  5
144F
330
1F
100
AcDbEntity
  8
0
100
AcDbLine
 10
360.4142443206233
 20
140.4749382995826
 30
0.0
 11
333.723992931221
 21
117.027427733192
 31
0.0
  0
LINE
  5
1450
330
1F
100
AcDbEntity
  8
0
100
AcDbLine
 10
360.783482373609
 20
134.1439222396073
 30
0.0
 11
333.723992931221
 21
110.3720343182573
 31
0.0
  0
LINE
  5
1451
330
1F
100
AcDbEntity
  8
0
100
AcDbLine
 10
360.6147779573109
 20
127.3403212066164
 30
0.0
 11
333.723992931221
 21
103.7166409033227
 31
0.0
  0
LINE
  5
1452
330
1F
100
AcDbEntity
  8
0
100
AcDbLine
 10
359.8568622794818
 20
120.0190953270469
 30
0.0
 11
333.723992931221
 21
97.06124748838803
 31
0.0
  0
LINE
  5
1453
330
1F
100
AcDbEntity
  8
0
100
AcDbLine
 10
358.4655855999333
 20
112.141458847836
 30
0.0
 11
320.9454395405942
 21
79.17983520692152
 31
0.0
  0
LINE
  5
1454
330
1F
100
AcDbEntity
  8
0
100
AcDbLine
 10
356.4156763050612
 20
103.6852105383408
 30
0.0
 11
320.9454395405942
 21
72.52444179198689
 31
0.0
  0
LINE
  5
1455
330
1F
100
AcDbEntity
  8
0
100
AcDbLine
 10
353.7187941445642
 20
94.66059354315645
 30
0.0
 11
320.9454395405942
 21
65.86904837705222
 31
0.0
  0
LINE
  5
1456
330
1F
100
AcDbEntity
  8
0
100
AcDbLine
 10
350.1856079512643
 20
84.901279547192
 30
0.0
 11
321.6521302758658
 21
59.8344860753468
 31
0.0
  0
SPLINE
  5
145B
330
1F
100
AcDbEntity
  8
0
100
AcDbSpline
210
0.0
220
0.0
230
1.0
 70
     8
 71
     3
 72
    14
 73
    10
 74
     0
 42
0.000000001
 43
0.0000000001
 40
1.01074493271815
 40
1.01074493271815
 40
1.01074493271815
 40
1.01074493271815
 40
13.63949290160917
 40
50.86071383759936
 40
102.5733268915296
 40
141.097237239443
 40
193.1440863974456
 40
222.5011765969876
 40
243.4075488329018
 40
243.4075488329018
 40
243.4075488329018
 40
243.4075488329018
 10
320.7989929312211
 20
271.7500291594714
 30
0.0
 10
325.2726411093828
 20
271.5374882171276
 30
0.0
 10
342.6693187335837
 20
270.3215071393435
 30
0.0
 10
349.6427519854936
 20
226.9291155022358
 30
0.0
 10
343.0687807954057
 20
187.6770966004827
 30
0.0
 10
365.3199159063275
 20
142.3288945438138
 30
0.0
 10
357.3874021631693
 20
102.2019589413447
 30
0.0
 10
343.9552129377016
 20
68.12483532342632
 30
0.0
 10
327.7905847091794
 20
61.99795312074112
 30
0.0
 10
320.9454395405943
 20
59.58460841982339
 30
0.0
  0
LINE
  5
145C
330
1F
100
AcDbEntity
  8
0
100
AcDbLine
 10
324.6210216971974
 20
95.7196381369842
 30
0.0
 11
320.9454395405942
 21
92.49062203679082
 31
0.0
  0
LINE
  5
145D
330
1F
100
AcDbEntity
  8
0
100
AcDbLine
 10
332.196841861006
 20
95.71963813698423
 30
0.0
 11
320.9454395405942
 21
85.83522862185619
 31
0.0
  0
TEXT
  5
1461
330
1F
100
AcDbEntity
  8
0
100
AcDbText
 10
42.59201113823295
 20
223.7578126961145
 30
0.0
 40
3.75
  1
HOLE DETAIL
100
AcDbText
  0
TEXT
  5
1462
330
1F
100
AcDbEntity
  8
0
100
AcDbText
 10
42.59201113823295
 20
218.1328126961145
 30
0.0
 40
3.75
  1
    2:1
100
AcDbText
  0
LINE
  5
1463
330
1F
100
AcDbEntity
  8
0
100
AcDbLine
 10
320.798992931221
 20
220.2622934129842
 30
0.0
 11
320.7989929312211
 21
276.4182248679111
 31
0.0
  0
LINE
  5
1464
330
1F
100
AcDbEntity
  8
0
100
AcDbLine
 10
320.9454395405942
 20
111.1057026285607
 30
0.0
 11
320.9454395405942
 21
59.58460841982335
 31
0.0
  0
DIMENSION
  5
1475
102
{ACAD_REACTORS
330
1477
102
}
102
{ACAD_XDICTIONARY
360
1476
102
}
330
1F
100
AcDbEntity
  8
0
100
AcDbDimension
280
     0
  2
*D25
 10
333.723992931221
 20
255.8374992155694
 30
0.0
 11
357.9633773693557
 21
255.8374992155694
 31
0.0
 70
   160
 71
     5
 42
12.92500000000001
 73
     0
 74
     0
 75
     0
  3
ISO-25
100
AcDbAlignedDimension
 13
320.798992931221
 23
235.7196381369842
 33
0.0
 14
333.723992931221
 24
235.7196381369842
 34
0.0
100
AcDbRotatedDimension
1001
ACAD
1000
DSTYLE
1002
{
1070
   144
1040
1.0
1070
   179
1070
     2
1070
    41
1040
3.302
1070
   271
1070
     0
1070
    44
1040
1.0
1070
    42
1040
1.0
1070
   147
1040
1.524
1070
   272
1070
     3
1070
    73
1070
     1
1070
    74
1070
     1
1070
   140
1040
3.5
1070
   284
1070
     0
1070
    78
1070
     0
1002
}
  0
ARC
  5
1486
102
{ACAD_REACTORS
330
149B
102
}
330
1F
100
AcDbEntity
  8
0
100
AcDbCircle
 10
207.0544200794527
 20
166.0019087263842
 30
0.0
 40
70.0
100
AcDbArc
 50
90.00000000000001
 51
270.0
  0
LINE
  5
1487
330
1F
100
AcDbEntity
  8
0
100
AcDbLine
 10
207.0544200794528
 20
59.72560841982343
 30
0.0
 11
207.0544200794527
 21
278.9134649323427
 31
0.0
  0
DIMENSION
  5
1489
102
{ACAD_REACTORS
330
148B
102
}
102
{ACAD_XDICTIONARY
360
148A
102
}
330
1F
100
AcDbEntity
  8
0
100
AcDbDimension
280
     0
  2
*D26
 10
175.3044200794527
 20
247.6548605510167
 30
0.0
 11
191.1794200794527
 21
251.2205272176833
 31
0.0
 70
    32
 71
     5
 42
31.75
 73
     0
 74
     0
 75
     0
  3
ISO-25
100
AcDbAlignedDimension
 13
207.0544200794527
 23
166.0019087263842
 33
0.0
 14
175.3044200794527
 24
166.0019087263842
 34
0.0
100
AcDbRotatedDimension
1001
ACAD
1000
DSTYLE
1002
{
1070
   144
1040
1.0
1070
   179
1070
     2
1070
    41
1040
3.302
1070
   271
1070
     2
1070
    44
1040
1.0
1070
    42
1040
1.0
1070
   147
1040
1.524
1070
   272
1070
     3
1070
    73
1070
     1
1070
    74
1070
     1
1070
   140
1040
3.5
1070
   284
1070
     0
1070
    78
1070
     0
1002
}
  0
DIMENSION
  5
1499
102
{ACAD_REACTORS
330
149B
102
}
102
{ACAD_XDICTIONARY
360
149A
102
}
330
1F
100
AcDbEntity
  8
0
100
AcDbDimension
280
     0
  2
*D27
 10
207.0544200794527
 20
225.6229437067327
 30
0.0
 11
220.4324200794527
 21
229.1886103733993
 31
0.0
 70
    32
 71
     5
 42
8.499999999999972
 73
     0
 74
     0
 75
     0
  3
ISO-25
100
AcDbAlignedDimension
 13
198.5544200794527
 23
196.2519087263842
 33
0.0
 14
207.0544200794527
 24
236.0019087263842
 34
0.0
100
AcDbRotatedDimension
1001
ACAD
1000
DSTYLE
1002
{
1070
   144
1040
1.0
1070
   179
1070
     2
1070
    41
1040
3.302
1070
   271
1070
     2
1070
    44
1040
1.0
1070
    42
1040
1.0
1070
   147
1040
1.524
1070
   272
1070
     3
1070
    73
1070
     1
1070
    74
1070
     1
1070
   140
1040
3.5
1070
   284
1070
     0
1070
    78
1070
     0
1002
}
  0
LINE
  5
14C1
330
1F
100
AcDbEntity
  8
0
  6
CENTER
100
AcDbLine
 10
207.0544200794527
 20
166.0019087263842
 30
0.0
 11
120.6088407428564
 21
166.0019087263842
 31
0.0
  0
LINE
  5
14C2
330
1F
100
AcDbEntity
  8
0
  6
CENTER
100
AcDbLine
 10
309.3068042934895
 20
166.0019087263842
 30
0.0
 11
360.3474689668903
 21
166.0019087263842
 31
0.0
  0
MTEXT
  5
14C7
330
1F
100
AcDbEntity
  8
0
100
AcDbMText
 10
183.1218401379331
 20
245.682215431666
 30
0.0
 40
3.718000000000001
 41
15.99710718922108
 46
3.38
 71
     1
 72
     5
  1
{(1.25")}
 73
     1
 44
1.0
1001
ACAD
1000
ACAD_MTEXT_DEFINED_HEIGHT_BEGIN
1070
    46
1040
3.38
1000
ACAD_MTEXT_DEFINED_HEIGHT_END
  0
MTEXT
  5
14C8
330
1F
100
AcDbEntity
  8
0
100
AcDbMText
 10
212.8221482676174
 20
223.1611208565081
 30
0.0
 40
3.718000000000001
 41
15.99710718922108
 46
3.718000000000001
 71
     1
 72
     5
  1
{(0.35")}
 73
     1
 44
1.0
1001
ACAD
1000
ACAD_MTEXT_DEFINED_HEIGHT_BEGIN
1070
    46
1040
3.718000000000001
1000
ACAD_MTEXT_DEFINED_HEIGHT_END
  0
MTEXT
  5
14C9
330
1F
100
AcDbEntity
  8
0
100
AcDbMText
 10
239.6234482494647
 20
163.7501152604608
 30
0.0
 40
3.718000000000001
 41
15.99710718922108
 46
3.718000000000001
 71
     1
 72
     5
  1
{(2.38")}
 73
     1
 44
1.0
1001
ACAD
1000
ACAD_MTEXT_DEFINED_HEIGHT_BEGIN
1070
    46
1040
3.718000000000001
1000
ACAD_MTEXT_DEFINED_HEIGHT_END
  0
MTEXT
  5
14CA
330
1F
100
AcDbEntity
  8
0
100
AcDbMText
 10
215.548496494012
 20
180.9113860175135
 30
0.0
 40
3.718000000000001
 41
15.99710718922108
 46
3.718000000000001
 71
     1
 72
     5
  1
{(1.19")}
 73
     1
 44
1.0
1001
ACAD
1000
ACAD_MTEXT_DEFINED_HEIGHT_BEGIN
1070
    46
1040
3.718000000000001
1000
ACAD_MTEXT_DEFINED_HEIGHT_END
  0
MTEXT
  5
14CB
330
1F
100
AcDbEntity
  8
0
100
AcDbMText
 10
62.9321550270647
 20
148.507734216924
 30
0.0
 40
3.718000000000001
 41
15.99710718922108
 46
3.718000000000001
 71
     1
 72
     5
  1
{(0.31")}
 73
     1
 44
1.0
1001
ACAD
1000
ACAD_MTEXT_DEFINED_HEIGHT_BEGIN
1070
    46
1040
3.718000000000001
1000
ACAD_MTEXT_DEFINED_HEIGHT_END
  0
MTEXT
  5
14CC
330
1F
100
AcDbEntity
  8
0
100
AcDbMText
 10
42.46509111332464
 20
99.8917471119957
 30
0.0
 40
3.718000000000001
 41
15.99710718922108
 46
3.718000000000001
 71
     1
 72
     5
  1
{(0.25")}
 11
6.123233995736766E-17
 21
1.0
 31
0.0
 73
     1
 44
1.0
1001
ACAD
1000
ACAD_MTEXT_DEFINED_HEIGHT_BEGIN
1070
    46
1040
3.718000000000001
1000
ACAD_MTEXT_DEFINED_HEIGHT_END
  0
MTEXT
  5
14CD
330
1F
100
AcDbEntity
  8
0
100
AcDbMText
 10
19.02320683001206
 20
170.4943758539765
 30
0.0
 40
3.718000000000001
 41
15.99710718922108
 46
3.718000000000001
 71
     1
 72
     5
  1
{(0.14")}
 73
     1
 44
1.0
1001
ACAD
1000
ACAD_MTEXT_DEFINED_HEIGHT_BEGIN
1070
    46
1040
3.718000000000001
1000
ACAD_MTEXT_DEFINED_HEIGHT_END
  0
MTEXT
  5
14CE
330
1F
100
AcDbEntity
  8
0
100
AcDbMText
 10
362.8630375634856
 20
260.9470766725028
 30
0.0
 40
3.718000000000001
 41
15.99710718922108
 46
3.718000000000001
 71
     1
 72
     5
  1
{(0.51")}
 73
     1
 44
1.0
1001
ACAD
1000
ACAD_MTEXT_DEFINED_HEIGHT_BEGIN
1070
    46
1040
3.718000000000001
1000
ACAD_MTEXT_DEFINED_HEIGHT_END
  0
MTEXT
  5
14CF
330
1F
100
AcDbEntity
  8
0
100
AcDbMText
 10
363.2603177689593
 20
164.3421465318713
 30
0.0
 40
3.718000000000001
 41
15.99710718922108
 46
3.718000000000001
 71
     1
 72
     5
  1
{(4.50DIA")}
 73
     1
 44
1.0
1001
ACAD
1000
ACAD_MTEXT_DEFINED_HEIGHT_BEGIN
1070
    46
1040
3.718000000000001
1000
ACAD_MTEXT_DEFINED_HEIGHT_END
  0
MTEXT
  5
14D0
330
1F
100
AcDbEntity
  8
0
100
AcDbMText
 10
271.9030059218857
 20
163.6388116154924
 30
0.0
 40
3.718000000000001
 41
36.67772426534084
 46
3.718000000000001
 71
     1
 72
     5
  1
{(5.51" DIA)}
 73
     1
 44
1.0
1001
ACAD
1000
ACAD_MTEXT_DEFINED_HEIGHT_BEGIN
1070
    46
1040
3.718000000000001
1000
ACAD_MTEXT_DEFINED_HEIGHT_END
  0
LINE
  5
14D1
330
1F
100
AcDbEntity
  8
0
100
AcDbLine
 10
200.3044200794527
 20
135.7519087263842
 30
0.0
 11
249.1775400101071
 21
135.7519087263842
 31
0.0
1001
PE_URL
1000

1001
ACAD
1000
DSTYLE
1002
{
1070
   179
1070
     2
1070
    41
1040
3.302
1070
   271
1070
     2
1070
    44
1040
1.0
1070
    42
1040
1.0
1070
   147
1040
1.524
1070
   272
1070
     3
1070
    73
1070
     1
1070
    74
1070
     1
1070
   140
1040
3.5
1070
   284
1070
     0
1070
    78
1070
     0
1002
}
  0
LINE
  5
14D2
330
1F
100
AcDbEntity
  8
0
100
AcDbLine
 10
200.3044200794527
 20
196.2519087263842
 30
0.0
 11
249.1775400101071
 21
196.2519087263842
 31
0.0
1001
PE_URL
1000

1001
ACAD
1000
DSTYLE
1002
{
1070
   179
1070
     2
1070
    41
1040
3.302
1070
   271
1070
     2
1070
    44
1040
1.0
1070
    42
1040
1.0
1070
   147
1040
1.524
1070
   272
1070
     3
1070
    73
1070
     1
1070
    74
1070
     1
1070
   140
1040
3.5
1070
   284
1070
     0
1070
    78
1070
     0
1002
}
  0
LINE
  5
14D3
330
1F
100
AcDbEntity
  8
0
100
AcDbLine
 10
248.1775400101071
 20
135.7519087263842
 30
0.0
 11
248.1775400101071
 21
157.4407437988437
 31
0.0
1001
PE_URL
1000

1001
ACAD
1000
DSTYLE
1002
{
1070
   179
1070
     2
1070
    41
1040
3.302
1070
   271
1070
     2
1070
    44
1040
1.0
1070
    42
1040
1.0
1070
   147
1040
1.524
1070
   272
1070
     3
1070
    73
1070
     1
1070
    74
1070
     1
1070
   140
1040
3.5
1070
   284
1070
     0
1070
    78
1070
     0
1002
}
  0
LINE
  5
14D4
330
1F
100
AcDbEntity
  8
0
100
AcDbLine
 10
248.1775400101071
 20
196.2519087263842
 30
0.0
 11
248.1775400101071
 21
173.4218698620016
 31
0.0
1001
PE_URL
1000

1001
ACAD
1000
DSTYLE
1002
{
1070
   179
1070
     2
1070
    41
1040
3.302
1070
   271
1070
     2
1070
    44
1040
1.0
1070
    42
1040
1.0
1070
   147
1040
1.524
1070
   272
1070
     3
1070
    73
1070
     1
1070
    74
1070
     1
1070
   140
1040
3.5
1070
   284
1070
     0
1070
    78
1070
     0
1002
}
  0
LINE
  5
14D5
330
1F
100
AcDbEntity
  8
0
100
AcDbLine
 10
248.1775400101071
 20
132.4499087263842
 30
0.0
 11
248.1775400101071
 21
129.1479087263842
 31
0.0
1001
PE_URL
1000

1001
ACAD
1000
DSTYLE
1002
{
1070
   179
1070
     2
1070
    41
1040
3.302
1070
   271
1070
     2
1070
    44
1040
1.0
1070
    42
1040
1.0
1070
   147
1040
1.524
1070
   272
1070
     3
1070
    73
1070
     1
1070
    74
1070
     1
1070
   140
1040
3.5
1070
   284
1070
     0
1070
    78
1070
     0
1002
}
  0
LINE
  5
14D6
330
1F
100
AcDbEntity
  8
0
100
AcDbLine
 10
248.1775400101071
 20
199.5539087263842
 30
0.0
 11
248.1775400101071
 21
202.8559087263842
 31
0.0
1001
PE_URL
1000

1001
ACAD
1000
DSTYLE
1002
{
1070
   179
1070
     2
1070
    41
1040
3.302
1070
   271
1070
     2
1070
    44
1040
1.0
1070
    42
1040
1.0
1070
   147
1040
1.524
1070
   272
1070
     3
1070
    73
1070
     1
1070
    74
1070
     1
1070
   140
1040
3.5
1070
   284
1070
     0
1070
    78
1070
     0
1002
}
  0
SOLID
  5
14D7
330
1F
100
AcDbEntity
  8
0
100
AcDbTrace
 10
248.7278733434405
 20
132.4499087263842
 30
0.0
 11
247.6272066767738
 21
132.4499087263842
 31
0.0
 12
248.1775400101071
 22
135.7519087263842
 32
0.0
 13
248.1775400101071
 23
135.7519087263842
 33
0.0
1001
PE_URL
1000

1001
ACAD
1000
DSTYLE
1002
{
1070
   179
1070
     2
1070
    41
1040
3.302
1070
   271
1070
     2
1070
    44
1040
1.0
1070
    42
1040
1.0
1070
   147
1040
1.524
1070
   272
1070
     3
1070
    73
1070
     1
1070
    74
1070
     1
1070
   140
1040
3.5
1070
   284
1070
     0
1070
    78
1070
     0
1002
}
  0
SOLID
  5
14D8
330
1F
100
AcDbEntity
  8
0
100
AcDbTrace
 10
247.6272066767738
 20
199.5539087263842
 30
0.0
 11
248.7278733434405
 21
199.5539087263842
 31
0.0
 12
248.1775400101071
 22
196.2519087263842
 32
0.0
 13
248.1775400101071
 23
196.2519087263842
 33
0.0
1001
PE_URL
1000

1001
ACAD
1000
DSTYLE
1002
{
1070
   179
1070
     2
1070
    41
1040
3.302
1070
   271
1070
     2
1070
    44
1040
1.0
1070
    42
1040
1.0
1070
   147
1040
1.524
1070
   272
1070
     3
1070
    73
1070
     1
1070
    74
1070
     1
1070
   140
1040
3.5
1070
   284
1070
     0
1070
    78
1070
     0
1002
}
  0
MTEXT
  5
14D9
330
1F
100
AcDbEntity
  8
0
100
AcDbMText
 10
248.1775400101071
 20
170.5527633271307
 30
0.0
 40
3.5
 41
0.0
 46
0.0
 71
     2
 72
     1
  1
60,50
 73
     1
 44
1.0
1001
PE_URL
1000

1001
ACAD
1000
DSTYLE
1002
{
1070
   179
1070
     2
1070
    41
1040
3.302
1070
   271
1070
     2
1070
    44
1040
1.0
1070
    42
1040
1.0
1070
   147
1040
1.524
1070
   272
1070
     3
1070
    73
1070
     1
1070
    74
1070
     1
1070
   140
1040
3.5
1070
   284
1070
     0
1070
    78
1070
     0
1002
}
  0
LINE
  5
14DF
330
1F
100
AcDbEntity
  8
0
100
AcDbLine
 10
200.3044200794527
 20
196.2519087263842
 30
0.0
 11
225.0544200794527
 21
196.2519087263842
 31
0.0
1001
PE_URL
1000

1001
ACAD
1000
DSTYLE
1002
{
1070
   179
1070
     2
1070
    41
1040
3.302
1070
   271
1070
     2
1070
    44
1040
1.0
1070
    42
1040
1.0
1070
   147
1040
1.524
1070
   272
1070
     3
1070
    73
1070
     1
1070
    74
1070
     1
1070
   140
1040
3.5
1070
   284
1070
     0
1070
    78
1070
     0
1002
}
  0
LINE
  5
14E0
330
1F
100
AcDbEntity
  8
0
100
AcDbLine
 10
177.0544200794527
 20
166.0019087263842
 30
0.0
 11
225.0544200794527
 21
166.0019087263842
 31
0.0
1001
PE_URL
1000

1001
ACAD
1000
DSTYLE
1002
{
1070
   179
1070
     2
1070
    41
1040
3.302
1070
   271
1070
     2
1070
    44
1040
1.0
1070
    42
1040
1.0
1070
   147
1040
1.524
1070
   272
1070
     3
1070
    73
1070
     1
1070
    74
1070
     1
1070
   140
1040
3.5
1070
   284
1070
     0
1070
    78
1070
     0
1002
}
  0
LINE
  5
14E1
330
1F
100
AcDbEntity
  8
0
100
AcDbLine
 10
224.0544200794527
 20
192.9499087263842
 30
0.0
 11
224.0544200794527
 21
189.0342007083174
 31
0.0
1001
PE_URL
1000

1001
ACAD
1000
DSTYLE
1002
{
1070
   179
1070
     2
1070
    41
1040
3.302
1070
   271
1070
     2
1070
    44
1040
1.0
1070
    42
1040
1.0
1070
   147
1040
1.524
1070
   272
1070
     3
1070
    73
1070
     1
1070
    74
1070
     1
1070
   140
1040
3.5
1070
   284
1070
     0
1070
    78
1070
     0
1002
}
  0
LINE
  5
14E2
330
1F
100
AcDbEntity
  8
0
100
AcDbLine
 10
224.0544200794527
 20
169.3039087263842
 30
0.0
 11
224.0544200794527
 21
174.0365285567385
 31
0.0
1001
PE_URL
1000

1001
ACAD
1000
DSTYLE
1002
{
1070
   179
1070
     2
1070
    41
1040
3.302
1070
   271
1070
     2
1070
    44
1040
1.0
1070
    42
1040
1.0
1070
   147
1040
1.524
1070
   272
1070
     3
1070
    73
1070
     1
1070
    74
1070
     1
1070
   140
1040
3.5
1070
   284
1070
     0
1070
    78
1070
     0
1002
}
  0
SOLID
  5
14E3
330
1F
100
AcDbEntity
  8
0
100
AcDbTrace
 10
224.604753412786
 20
192.9499087263842
 30
0.0
 11
223.5040867461194
 21
192.9499087263842
 31
0.0
 12
224.0544200794527
 22
196.2519087263842
 32
0.0
 13
224.0544200794527
 23
196.2519087263842
 33
0.0
1001
PE_URL
1000

1001
ACAD
1000
DSTYLE
1002
{
1070
   179
1070
     2
1070
    41
1040
3.302
1070
   271
1070
     2
1070
    44
1040
1.0
1070
    42
1040
1.0
1070
   147
1040
1.524
1070
   272
1070
     3
1070
    73
1070
     1
1070
    74
1070
     1
1070
   140
1040
3.5
1070
   284
1070
     0
1070
    78
1070
     0
1002
}
  0
SOLID
  5
14E4
330
1F
100
AcDbEntity
  8
0
100
AcDbTrace
 10
223.5040867461194
 20
169.3039087263842
 30
0.0
 11
224.604753412786
 21
169.3039087263842
 31
0.0
 12
224.0544200794527
 22
166.0019087263842
 32
0.0
 13
224.0544200794527
 23
166.0019087263842
 33
0.0
1001
PE_URL
1000

1001
ACAD
1000
DSTYLE
1002
{
1070
   179
1070
     2
1070
    41
1040
3.302
1070
   271
1070
     2
1070
    44
1040
1.0
1070
    42
1040
1.0
1070
   147
1040
1.524
1070
   272
1070
     3
1070
    73
1070
     1
1070
    74
1070
     1
1070
   140
1040
3.5
1070
   284
1070
     0
1070
    78
1070
     0
1002
}
  0
MTEXT
  5
14E5
330
1F
100
AcDbEntity
  8
0
100
AcDbMText
 10
224.0544200794527
 20
186.3648006056825
 30
0.0
 40
3.5
 41
0.0
 46
0.0
 71
     2
 72
     1
  1
30,25
 73
     1
 44
1.0
1001
PE_URL
1000

1001
ACAD
1000
DSTYLE
1002
{
1070
   179
1070
     2
1070
    41
1040
3.302
1070
   271
1070
     2
1070
    44
1040
1.0
1070
    42
1040
1.0
1070
   147
1040
1.524
1070
   272
1070
     3
1070
    73
1070
     1
1070
    74
1070
     1
1070
   140
1040
3.5
1070
   284
1070
     0
1070
    78
1070
     0
1002
}
  0
LINE
  5
14E6
330
1F
100
AcDbEntity
  8
0
100
AcDbLine
 10
319.798992931221
 20
235.7196381369842
 30
0.0
 11
284.0053364029632
 21
235.7196381369842
 31
0.0
1001
ACAD
1000
DSTYLE
1002
{
1070
    45
1040
0.0
1070
   144
1040
1.0
1070
   179
1070
     2
1070
    41
1040
3.302
1070
   271
1070
     1
1070
    44
1040
1.0
1070
    42
1040
1.0
1070
   147
1040
1.524
1070
   272
1070
     3
1070
    73
1070
     1
1070
    74
1070
     1
1070
   140
1040
3.5
1070
   284
1070
     0
1070
    78
1070
     0
1002
}
  0
LINE
  5
14E7
330
1F
100
AcDbEntity
  8
0
100
AcDbLine
 10
319.9454395405942
 20
95.71963813698422
 30
0.0
 11
284.0053364029632
 21
95.71963813698422
 31
0.0
1001
ACAD
1000
DSTYLE
1002
{
1070
    45
1040
0.0
1070
   144
1040
1.0
1070
   179
1070
     2
1070
    41
1040
3.302
1070
   271
1070
     1
1070
    44
1040
1.0
1070
    42
1040
1.0
1070
   147
1040
1.524
1070
   272
1070
     3
1070
    73
1070
     1
1070
    74
1070
     1
1070
   140
1040
3.5
1070
   284
1070
     0
1070
    78
1070
     0
1002
}
  0
LINE
  5
14E8
330
1F
100
AcDbEntity
  8
0
100
AcDbLine
 10
285.0053364029632
 20
232.4176381369842
 30
0.0
 11
285.0053364029632
 21
173.544801600949
 31
0.0
1001
ACAD
1000
DSTYLE
1002
{
1070
    45
1040
0.0
1070
   144
1040
1.0
1070
   179
1070
     2
1070
    41
1040
3.302
1070
   271
1070
     1
1070
    44
1040
1.0
1070
    42
1040
1.0
1070
   147
1040
1.524
1070
   272
1070
     3
1070
    73
1070
     1
1070
    74
1070
     1
1070
   140
1040
3.5
1070
   284
1070
     0
1070
    78
1070
     0
1002
}
  0
LINE
  5
14E9
330
1F
100
AcDbEntity
  8
0
100
AcDbLine
 10
285.0053364029632
 20
99.02163813698422
 30
0.0
 11
285.0053364029632
 21
157.3178120598964
 31
0.0
1001
ACAD
1000
DSTYLE
1002
{
1070
    45
1040
0.0
1070
   144
1040
1.0
1070
   179
1070
     2
1070
    41
1040
3.302
1070
   271
1070
     1
1070
    44
1040
1.0
1070
    42
1040
1.0
1070
   147
1040
1.524
1070
   272
1070
     3
1070
    73
1070
     1
1070
    74
1070
     1
1070
   140
1040
3.5
1070
   284
1070
     0
1070
    78
1070
     0
1002
}
  0
SOLID
  5
14EA
330
1F
100
AcDbEntity
  8
0
100
AcDbTrace
 10
285.5556697362965
 20
232.4176381369842
 30
0.0
 11
284.4550030696298
 21
232.4176381369842
 31
0.0
 12
285.0053364029632
 22
235.7196381369842
 32
0.0
 13
285.0053364029632
 23
235.7196381369842
 33
0.0
1001
ACAD
1000
DSTYLE
1002
{
1070
    45
1040
0.0
1070
   144
1040
1.0
1070
   179
1070
     2
1070
    41
1040
3.302
1070
   271
1070
     1
1070
    44
1040
1.0
1070
    42
1040
1.0
1070
   147
1040
1.524
1070
   272
1070
     3
1070
    73
1070
     1
1070
    74
1070
     1
1070
   140
1040
3.5
1070
   284
1070
     0
1070
    78
1070
     0
1002
}
  0
SOLID
  5
14EB
330
1F
100
AcDbEntity
  8
0
100
AcDbTrace
 10
284.4550030696298
 20
99.02163813698422
 30
0.0
 11
285.5556697362965
 21
99.02163813698422
 31
0.0
 12
285.0053364029632
 22
95.71963813698422
 32
0.0
 13
285.0053364029632
 23
95.71963813698422
 33
0.0
1001
ACAD
1000
DSTYLE
1002
{
1070
    45
1040
0.0
1070
   144
1040
1.0
1070
   179
1070
     2
1070
    41
1040
3.302
1070
   271
1070
     1
1070
    44
1040
1.0
1070
    42
1040
1.0
1070
   147
1040
1.524
1070
   272
1070
     3
1070
    73
1070
     1
1070
    74
1070
     1
1070
   140
1040
3.5
1070
   284
1070
     0
1070
    78
1070
     0
1002
}
  0
MTEXT
  5
14EC
330
1F
100
AcDbEntity
  8
0
100
AcDbMText
 10
285.0053364029632
 20
168.5470681327737
 30
0.0
 40
3.5
 41
0.0
 46
0.0
 71
     5
 72
     1
  1
 140 DIA MIN
 73
     1
 44
1.0
1001
ACAD
1000
DSTYLE
1002
{
1070
    45
1040
0.0
1070
   144
1040
1.0
1070
   179
1070
     2
1070
    41
1040
3.302
1070
   271
1070
     1
1070
    44
1040
1.0
1070
    42
1040
1.0
1070
   147
1040
1.524
1070
   272
1070
     3
1070
    73
1070
     1
1070
    74
1070
     1
1070
   140
1040
3.5
1070
   284
1070
     0
1070
    78
1070
     0
1002
}
  0
LINE
  5
14EE
330
1F
100
AcDbEntity
  8
0
100
AcDbLine
 10
334.723992931221
 20
222.9713677841842
 30
0.0
 11
377.6637584841277
 21
222.9713677841842
 31
0.0
1001
ACAD
1000
DSTYLE
1002
{
1070
   144
1040
1.0
1070
   179
1070
     2
1070
    41
1040
3.302
1070
   271
1070
     1
1070
    44
1040
1.0
1070
    42
1040
1.0
1070
   147
1040
1.524
1070
   272
1070
     3
1070
    73
1070
     1
1070
    74
1070
     1
1070
   140
1040
3.5
1070
   284
1070
     0
1070
    78
1070
     0
1002
}
  0
LINE
  5
14EF
330
1F
100
AcDbEntity
  8
0
100
AcDbLine
 10
334.723992931221
 20
108.7504496685842
 30
0.0
 11
377.6637584841277
 21
108.7504496685842
 31
0.0
1001
ACAD
1000
DSTYLE
1002
{
1070
   144
1040
1.0
1070
   179
1070
     2
1070
    41
1040
3.302
1070
   271
1070
     1
1070
    44
1040
1.0
1070
    42
1040
1.0
1070
   147
1040
1.524
1070
   272
1070
     3
1070
    73
1070
     1
1070
    74
1070
     1
1070
   140
1040
3.5
1070
   284
1070
     0
1070
    78
1070
     0
1002
}
  0
LINE
  5
14F0
330
1F
100
AcDbEntity
  8
0
100
AcDbLine
 10
376.6637584841277
 20
219.6693677841842
 30
0.0
 11
376.6637584841277
 21
173.8858631766332
 31
0.0
1001
ACAD
1000
DSTYLE
1002
{
1070
   144
1040
1.0
1070
   179
1070
     2
1070
    41
1040
3.302
1070
   271
1070
     1
1070
    44
1040
1.0
1070
    42
1040
1.0
1070
   147
1040
1.524
1070
   272
1070
     3
1070
    73
1070
     1
1070
    74
1070
     1
1070
   140
1040
3.5
1070
   284
1070
     0
1070
    78
1070
     0
1002
}
  0
LINE
  5
14F1
330
1F
100
AcDbEntity
  8
0
100
AcDbLine
 10
376.6637584841277
 20
112.0524496685842
 30
0.0
 11
376.6637584841277
 21
157.3188905450542
 31
0.0
1001
ACAD
1000
DSTYLE
1002
{
1070
   144
1040
1.0
1070
   179
1070
     2
1070
    41
1040
3.302
1070
   271
1070
     1
1070
    44
1040
1.0
1070
    42
1040
1.0
1070
   147
1040
1.524
1070
   272
1070
     3
1070
    73
1070
     1
1070
    74
1070
     1
1070
   140
1040
3.5
1070
   284
1070
     0
1070
    78
1070
     0
1002
}
  0
SOLID
  5
14F2
330
1F
100
AcDbEntity
  8
0
100
AcDbTrace
 10
377.2140918174611
 20
219.6693677841842
 30
0.0
 11
376.1134251507943
 21
219.6693677841842
 31
0.0
 12
376.6637584841277
 22
222.9713677841842
 32
0.0
 13
376.6637584841277
 23
222.9713677841842
 33
0.0
1001
ACAD
1000
DSTYLE
1002
{
1070
   144
1040
1.0
1070
   179
1070
     2
1070
    41
1040
3.302
1070
   271
1070
     1
1070
    44
1040
1.0
1070
    42
1040
1.0
1070
   147
1040
1.524
1070
   272
1070
     3
1070
    73
1070
     1
1070
    74
1070
     1
1070
   140
1040
3.5
1070
   284
1070
     0
1070
    78
1070
     0
1002
}
  0
SOLID
  5
14F3
330
1F
100
AcDbEntity
  8
0
100
AcDbTrace
 10
376.1134251507943
 20
112.0524496685842
 30
0.0
 11
377.2140918174611
 21
112.0524496685842
 31
0.0
 12
376.6637584841277
 22
108.7504496685842
 32
0.0
 13
376.6637584841277
 23
108.7504496685842
 33
0.0
1001
ACAD
1000
DSTYLE
1002
{
1070
   144
1040
1.0
1070
   179
1070
     2
1070
    41
1040
3.302
1070
   271
1070
     1
1070
    44
1040
1.0
1070
    42
1040
1.0
1070
   147
1040
1.524
1070
   272
1070
     3
1070
    73
1070
     1
1070
    74
1070
     1
1070
   140
1040
3.5
1070
   284
1070
     0
1070
    78
1070
     0
1002
}
  0
MTEXT
  5
14F4
330
1F
100
AcDbEntity
  8
0
100
AcDbMText
 10
376.6637584841277
 20
168.7421213579632
 30
0.0
 40
3.5
 41
0.0
 46
0.0
 71
     5
 72
     1
  1
114.2 DIA
 73
     1
 44
1.0
1001
ACAD
1000
DSTYLE
1002
{
1070
   144
1040
1.0
1070
   179
1070
     2
1070
    41
1040
3.302
1070
   271
1070
     1
1070
    44
1040
1.0
1070
    42
1040
1.0
1070
   147
1040
1.524
1070
   272
1070
     3
1070
    73
1070
     1
1070
    74
1070
     1
1070
   140
1040
3.5
1070
   284
1070
     0
1070
    78
1070
     0
1002
}
  0
LINE
  5
14F8
330
1F
100
AcDbEntity
  8
0
100
AcDbLine
 10
72.28817512385618
 20
115.7041474848032
 30
0.0
 11
49.57749745488651
 21
115.7041474848032
 31
0.0
  0
LINE
  5
14F9
330
1F
100
AcDbEntity
  8
0
100
AcDbLine
 10
72.28817512385618
 20
103.1041502622032
 30
0.0
 11
49.57749745488651
 21
103.1041502622032
 31
0.0
  0
LINE
  5
14FA
330
1F
100
AcDbEntity
  8
0
100
AcDbLine
 10
49.57749745488651
 20
112.4021474848032
 30
0.0
 11
49.57749745488651
 21
106.4061502622032
 31
0.0
  0
SOLID
  5
14FB
330
1F
100
AcDbEntity
  8
0
100
AcDbTrace
 10
50.12783078821985
 20
112.4021474848032
 30
0.0
 11
49.02716412155318
 21
112.4021474848032
 31
0.0
 12
49.57749745488651
 22
115.7041474848032
 32
0.0
 13
49.57749745488651
 23
115.7041474848032
 33
0.0
  0
SOLID
  5
14FC
330
1F
100
AcDbEntity
  8
0
100
AcDbTrace
 10
49.02716412155318
 20
106.4061502622032
 30
0.0
 11
50.12783078821985
 21
106.4061502622032
 31
0.0
 12
49.57749745488651
 22
103.1041502622032
 32
0.0
 13
49.57749745488651
 23
103.1041502622032
 33
0.0
  0
MTEXT
  5
14FD
330
1F
100
AcDbEntity
  8
0
100
AcDbMText
 10
38.34727572857076
 20
109.4041488735033
 30
0.0
 40
3.5
 41
0.0
 46
0.0
 71
     5
 72
     1
  1
\A1;6.3
  7
SLDTEXTSTYLE1
 11
0.0
 21
1.0
 31
0.0
 73
     1
 44
1.0
  0
MTEXT
  5
14FE
330
1F
100
AcDbEntity
  8
0
100
AcDbMText
 10
153.7518265263157
 20
52.83935128421055
 30
0.0
 40
2.5
 41
143.6778736334237
 46
2.5
 71
     1
 72
     5
  1
{ALL DIMENSIONS IN MILLEMETRES UNLESS SPECIFIED OTHERWISE}
 73
     1
 44
1.0
1001
ACAD
1000
ACAD_MTEXT_DEFINED_HEIGHT_BEGIN
1070
    46
1040
2.5
1000
ACAD_MTEXT_DEFINED_HEIGHT_END
  0
ENDSEC
  0
SECTION
  2
OBJECTS
  0
DICTIONARY
  5
C
330
0
100
AcDbDictionary
281
     1
  3
ACAD_DETAILVIEWSTYLE
350
13A2
  3
ACAD_GROUP
350
D
  3
ACAD_LAYOUT
350
1A
  3
ACAD_MATERIAL
350
138C
  3
ACAD_MLEADERSTYLE
350
1386
  3
ACAD_MLINESTYLE
350
17
  3
ACAD_PLOTSETTINGS
350
19
  3
ACAD_PLOTSTYLENAME
350
E
  3
ACAD_SCALELIST
350
BE
  3
ACAD_SECTIONVIEWSTYLE
350
13A3
  3
ACAD_TABLESTYLE
350
139A
  3
ACAD_VISUALSTYLE
350
2A
  3
AcDbVariableDictionary
350
1384
  3
ACDB_RECOMPOSE_DATA
350
1501
  3
APPDATA
350
139D
  0
SUN
  5
13AC
330
29
100
AcDbSun
 90
        1
290
     0
 63
     7
421
 16777215
 40
1.0
291
     1
 91
  2455826
 92
 54000000
292
     0
 70
     2
 71
   256
280
     1
  0
DICTIONARY
  5
13B5
330
13B4
100
AcDbDictionary
280
     1
281
     1
  3
ACAD_DIMASSOC
360
13B6
  0
DICTIONARY
  5
13C8
330
13C7
100
AcDbDictionary
280
     1
281
     1
  3
ACAD_DIMASSOC
360
13C9
  0
DICTIONARY
  5
1405
330
1404
100
AcDbDictionary
280
     1
281
     1
  3
ACAD_DIMASSOC
360
1406
  0
DICTIONARY
  5
1476
330
1475
100
AcDbDictionary
280
     1
281
     1
  3
ACAD_DIMASSOC
360
1477
  0
DICTIONARY
  5
148A
330
1489
100
AcDbDictionary
280
     1
281
     1
  3
ACAD_DIMASSOC
360
148B
  0
DICTIONARY
  5
149A
330
1499
100
AcDbDictionary
280
     1
281
     1
  3
ACAD_DIMASSOC
360
149B
  0
DICTIONARY
  5
13A2
102
{ACAD_REACTORS
330
C
102
}
330
C
100
AcDbDictionary
281
     1
  0
DICTIONARY
  5
D
102
{ACAD_REACTORS
330
C
102
}
330
C
100
AcDbDictionary
281
     1
  0
DICTIONARY
  5
1A
102
{ACAD_REACTORS
330
C
102
}
330
C
100
AcDbDictionary
281
     1
  3
Layout1
350
1E
  3
Layout2
350
26
  3
Model
350
22
  0
DICTIONARY
  5
138C
102
{ACAD_REACTORS
330
C
102
}
330
C
100
AcDbDictionary
281
     1
  3
ByBlock
350
138E
  3
ByLayer
350
138D
  3
Global
350
138F
  0
DICTIONARY
  5
1386
102
{ACAD_REACTORS
330
C
102
}
330
C
100
AcDbDictionary
281
     1
  3
Standard
350
139C
  0
DICTIONARY
  5
17
102
{ACAD_REACTORS
330
C
102
}
330
C
100
AcDbDictionary
281
     1
  3
Standard
350
18
  0
DICTIONARY
  5
19
102
{ACAD_REACTORS
330
C
102
}
330
C
100
AcDbDictionary
281
     1
  0
ACDBDICTIONARYWDFLT
  5
E
102
{ACAD_REACTORS
330
C
102
}
330
C
100
AcDbDictionary
281
     1
  3
Normal
350
F
100
AcDbDictionaryWithDefault
340
F
  0
DICTIONARY
  5
BE
102
{ACAD_REACTORS
330
C
102
}
330
C
100
AcDbDictionary
281
     1
  3
A0
350
BF
  3
A1
350
C0
  3
A2
350
C1
  3
A3
350
C2
  3
A4
350
C3
  3
A5
350
C4
  3
A6
350
C5
  3
A7
350
C6
  3
A8
350
C7
  3
A9
350
C8
  3
B0
350
C9
  3
B1
350
CA
  3
B2
350
CB
  3
B3
350
CC
  3
B4
350
CD
  3
B5
350
CE
  3
B6
350
CF
  3
B7
350
D0
  3
B8
350
D1
  3
B9
350
D2
  3
C0
350
D3
  3
C1
350
D4
  3
C2
350
D5
  3
C3
350
D6
  3
C4
350
D7
  3
C5
350
D8
  3
C6
350
D9
  3
C7
350
DA
  3
C8
350
DB
  3
C9
350
DC
  3
D0
350
DD
  3
D1
350
DE
  3
D2
350
DF
  0
DICTIONARY
  5
13A3
102
{ACAD_REACTORS
330
C
102
}
330
C
100
AcDbDictionary
281
     1
  0
DICTIONARY
  5
139A
102
{ACAD_REACTORS
330
C
102
}
330
C
100
AcDbDictionary
281
     1
  3
Standard
350
139B
  0
DICTIONARY
  5
2A
102
{ACAD_REACTORS
330
C
102
}
330
C
100
AcDbDictionary
281
     1
  3
2dWireframe
350
2F
  3
3D Hidden
350
31
  3
3dWireframe
350
30
  3
Basic
350
32
  3
Brighten
350
36
  3
ColorChange
350
3A
  3
Conceptual
350
34
  3
Dim
350
35
  3
EdgeColorOff
350
1394
  3
Facepattern
350
39
  3
Flat
350
2B
  3
FlatWithEdges
350
2C
  3
Gouraud
350
2D
  3
GouraudWithEdges
350
2E
  3
Hidden
350
1391
  3
JitterOff
350
1392
  3
Linepattern
350
38
  3
OverhangOff
350
1393
  3
Realistic
350
33
  3
Shaded
350
1399
  3
Shaded with edges
350
1398
  3
Shades of Gray
350
1395
  3
Sketchy
350
1396
  3
Thicken
350
37
  3
Wireframe
350
1390
  3
X-Ray
350
1397
  0
DICTIONARY
  5
1384
102
{ACAD_REACTORS
330
C
102
}
330
C
100
AcDbDictionary
281
     1
  3
CANNOSCALE
350
139E
  3
CMLEADERSTYLE
350
13A0
  3
CTABLESTYLE
350
139F
  3
DIMASSOC
350
138A
  3
HIDETEXT
350
138B
  3
MSLTSCALE
350
13A1
  0
XRECORD
  5
1501
102
{ACAD_REACTORS
330
C
102
}
330
C
100
AcDbXrecord
280
     1
 90
        1
330
139B
  0
DICTIONARY
  5
139D
102
{ACAD_REACTORS
330
C
102
}
330
C
100
AcDbDictionary
281
     1
  0
DIMASSOC
  5
13B6
102
{ACAD_REACTORS
330
13B5
102
}
330
13B5
100
AcDbDimAssoc
330
13B4
 90
       15
 70
     0
 71
     1
  1
AcDbOsnapPointRef
 72
    13
331
8B0
 73
     0
 91
        0
 40
0.0
 10
0.0
 20
0.0
 30
0.0
 75
     0
  1
AcDbOsnapPointRef
 72
     1
331
8B0
 73
     0
 91
        0
 40
0.0
 10
0.0
 20
0.0
 30
0.0
 75
     0
  1
AcDbOsnapPointRef
 72
    13
331
8BA
 73
     0
 91
        0
 40
0.0
 10
0.0
 20
0.0
 30
0.0
 75
     0
  1
AcDbOsnapPointRef
 72
     1
331
8BA
 73
     0
 91
        0
 40
0.0
 10
0.0
 20
0.0
 30
0.0
 75
     0
  0
DIMASSOC
  5
13C9
102
{ACAD_REACTORS
330
13C8
102
}
330
13C8
100
AcDbDimAssoc
330
13C7
 90
        3
 70
     0
 71
     1
  1
AcDbOsnapPointRef
 72
    13
331
8D0
 73
     0
 91
        0
 40
0.0
 10
0.0
 20
0.0
 30
0.0
 75
     0
  1
AcDbOsnapPointRef
 72
    13
331
8AD
 73
     0
 91
        0
 40
0.0
 10
0.0
 20
0.0
 30
0.0
 75
     0
  0
DIMASSOC
  5
1406
102
{ACAD_REACTORS
330
1405
102
}
330
1405
100
AcDbDimAssoc
330
1404
 90
        3
 70
     0
 71
     1
  1
AcDbOsnapPointRef
 72
    13
331
8D1
 73
     0
 91
        0
 40
0.0
 10
0.0
 20
0.0
 30
0.0
 75
     0
  1
AcDbOsnapPointRef
 72
     1
331
8D0
 73
     0
 91
        0
 40
0.0
 10
0.0
 20
0.0
 30
0.0
 75
     0
  0
DIMASSOC
  5
1477
102
{ACAD_REACTORS
330
1476
102
}
330
1476
100
AcDbDimAssoc
330
1475
 90
        3
 70
     0
 71
     1
  1
AcDbOsnapPointRef
 72
     1
331
13AD
 73
     0
 91
        0
 40
0.0
 10
0.0
 20
0.0
 30
0.0
 75
     0
  1
AcDbOsnapPointRef
 72
    13
331
13AD
 73
     0
 91
        0
 40
0.0
 10
0.0
 20
0.0
 30
0.0
 75
     0
  0
DIMASSOC
  5
148B
102
{ACAD_REACTORS
330
148A
102
}
330
148A
100
AcDbDimAssoc
330
1489
 90
        3
 70
     0
 71
     1
  1
AcDbOsnapPointRef
 72
     3
331
559
 73
     0
 91
        0
 40
0.0
 10
0.0
 20
0.0
 30
0.0
 75
     0
  1
AcDbOsnapPointRef
 72
    13
331
846
 73
     0
 91
        0
 40
0.0
 10
0.0
 20
0.0
 30
0.0
 75
     0
  0
DIMASSOC
  5
149B
102
{ACAD_REACTORS
330
149A
102
}
330
149A
100
AcDbDimAssoc
330
1499
 90
        3
 70
     0
 71
     1
  1
AcDbOsnapPointRef
 72
    13
331
845
 73
     0
 91
        0
 40
0.0
 10
0.0
 20
0.0
 30
0.0
 75
     0
  1
AcDbOsnapPointRef
 72
    13
331
1486
 73
     0
 91
        0
 40
0.0
 10
0.0
 20
0.0
 30
0.0
 75
     0
  0
LAYOUT
  5
1E
102
{ACAD_REACTORS
330
1A
102
}
330
1A
100
AcDbPlotSettings
  1

  2
none_device
  4

  6

 40
0.0
 41
0.0
 42
0.0
 43
0.0
 44
0.0
 45
0.0
 46
0.0
 47
0.0
 48
0.0
 49
0.0
140
0.0
141
0.0
142
1.0
143
1.0
 70
   688
 72
     0
 73
     0
 74
     5
  7

 75
    16
 76
     0
 77
     2
 78
   300
147
1.0
148
0.0
149
0.0
100
AcDbLayout
  1
Layout1
 70
     1
 71
     1
 10
0.0
 20
0.0
 11
420.0
 21
297.0
 12
0.0
 22
0.0
 32
0.0
 14
1.000000000000000E+20
 24
1.000000000000000E+20
 34
1.000000000000000E+20
 15
-1.000000000000000E+20
 25
-1.000000000000000E+20
 35
-1.000000000000000E+20
146
0.0
 13
0.0
 23
0.0
 33
0.0
 16
1.0
 26
0.0
 36
0.0
 17
0.0
 27
1.0
 37
0.0
 76
     0
330
1B
  0
LAYOUT
  5
26
102
{ACAD_REACTORS
330
1A
102
}
330
1A
100
AcDbPlotSettings
  1

  2
none_device
  4

  6

 40
0.0
 41
0.0
 42
0.0
 43
0.0
 44
0.0
 45
0.0
 46
0.0
 47
0.0
 48
0.0
 49
0.0
140
0.0
141
0.0
142
1.0
143
1.0
 70
   688
 72
     0
 73
     0
 74
     5
  7

 75
    16
 76
     0
 77
     2
 78
   300
147
1.0
148
0.0
149
0.0
100
AcDbLayout
  1
Layout2
 70
     1
 71
     2
 10
0.0
 20
0.0
 11
0.0
 21
0.0
 12
0.0
 22
0.0
 32
0.0
 14
0.0
 24
0.0
 34
0.0
 15
0.0
 25
0.0
 35
0.0
146
0.0
 13
0.0
 23
0.0
 33
0.0
 16
1.0
 26
0.0
 36
0.0
 17
0.0
 27
1.0
 37
0.0
 76
     0
330
23
  0
LAYOUT
  5
22
102
{ACAD_REACTORS
330
1A
102
}
330
1A
100
AcDbPlotSettings
  1

  2
none_device
  4

  6

 40
0.0
 41
0.0
 42
0.0
 43
0.0
 44
0.0
 45
0.0
 46
0.0
 47
0.0
 48
0.0
 49
0.0
140
0.0
141
0.0
142
1.0
143
1.0
 70
  1712
 72
     0
 73
     0
 74
     0
  7

 75
     0
 76
     0
 77
     2
 78
   300
147
1.0
148
2731.024078686803
149
130.7561231872826
100
AcDbLayout
  1
Model
 70
     1
 71
     0
 10
0.0
 20
0.0
 11
420.0
 21
297.0
 12
0.0
 22
0.0
 32
0.0
 14
5.155688116800007
 24
5.202125665500006
 34
0.0
 15
415.1556881168
 25
292.2021256655
 35
0.0
146
0.0
 13
0.0
 23
0.0
 33
0.0
 16
1.0
 26
0.0
 36
0.0
 17
0.0
 27
1.0
 37
0.0
 76
     0
330
1F
331
29
  0
MATERIAL
  5
138E
102
{ACAD_REACTORS
330
138C
102
}
330
138C
100
AcDbMaterial
  1
ByBlock
 72
     1
 94
      127
  0
MATERIAL
  5
138D
102
{ACAD_REACTORS
330
138C
102
}
330
138C
100
AcDbMaterial
  1
ByLayer
 72
     1
 94
      127
  0
MATERIAL
  5
138F
102
{ACAD_REACTORS
330
138C
102
}
330
138C
100
AcDbMaterial
  1
Global
 72
     1
 94
      127
  0
MLEADERSTYLE
  5
139C
102
{ACAD_REACTORS
330
1386
102
}
330
1386
100
AcDbMLeaderStyle
179
     2
170
     2
171
     1
172
     0
 90
        2
 40
0.0
 41
0.0
173
     1
 91
-1056964608
340
14
 92
       -2
290
     1
 42
2.0
291
     1
 43
8.0
  3
Standard
341
0
 44
4.0
300

342
11
174
     1
178
     1
175
     1
176
     0
 93
-1056964608
 45
4.0
292
     0
297
     0
 46
4.0
343
0
 94
-1056964608
 47
1.0
 49
1.0
140
1.0
293
     1
141
0.0
294
     1
177
     0
142
1.0
295
     0
296
     0
143
3.75
271
     0
272
     9
273
     9
298
     0
  0
MLINESTYLE
  5
18
102
{ACAD_REACTORS
330
17
102
}
330
17
100
AcDbMlineStyle
  2
Standard
 70
     0
  3

 62
   256
 51
90.0
 52
90.0
 71
     2
 49
0.5
 62
   256
  6
BYLAYER
 49
-0.5
 62
   256
  6
BYLAYER
  0
ACDBPLACEHOLDER
  5
F
102
{ACAD_REACTORS
330
E
102
}
330
E
  0
SCALE
  5
BF
102
{ACAD_REACTORS
330
BE
102
}
330
BE
100
AcDbScale
 70
     0
300
1:1
140
1.0
141
1.0
290
     1
  0
SCALE
  5
C0
102
{ACAD_REACTORS
330
BE
102
}
330
BE
100
AcDbScale
 70
     0
300
1:2
140
1.0
141
2.0
290
     0
  0
SCALE
  5
C1
102
{ACAD_REACTORS
330
BE
102
}
330
BE
100
AcDbScale
 70
     0
300
1:4
140
1.0
141
4.0
290
     0
  0
SCALE
  5
C2
102
{ACAD_REACTORS
330
BE
102
}
330
BE
100
AcDbScale
 70
     0
300
1:5
140
1.0
141
5.0
290
     0
  0
SCALE
  5
C3
102
{ACAD_REACTORS
330
BE
102
}
330
BE
100
AcDbScale
 70
     0
300
1:8
140
1.0
141
8.0
290
     0
  0
SCALE
  5
C4
102
{ACAD_REACTORS
330
BE
102
}
330
BE
100
AcDbScale
 70
     0
300
1:10
140
1.0
141
10.0
290
     0
  0
SCALE
  5
C5
102
{ACAD_REACTORS
330
BE
102
}
330
BE
100
AcDbScale
 70
     0
300
1:16
140
1.0
141
16.0
290
     0
  0
SCALE
  5
C6
102
{ACAD_REACTORS
330
BE
102
}
330
BE
100
AcDbScale
 70
     0
300
1:20
140
1.0
141
20.0
290
     0
  0
SCALE
  5
C7
102
{ACAD_REACTORS
330
BE
102
}
330
BE
100
AcDbScale
 70
     0
300
1:30
140
1.0
141
30.0
290
     0
  0
SCALE
  5
C8
102
{ACAD_REACTORS
330
BE
102
}
330
BE
100
AcDbScale
 70
     0
300
1:40
140
1.0
141
40.0
290
     0
  0
SCALE
  5
C9
102
{ACAD_REACTORS
330
BE
102
}
330
BE
100
AcDbScale
 70
     0
300
1:50
140
1.0
141
50.0
290
     0
  0
SCALE
  5
CA
102
{ACAD_REACTORS
330
BE
102
}
330
BE
100
AcDbScale
 70
     0
300
1:100
140
1.0
141
100.0
290
     0
  0
SCALE
  5
CB
102
{ACAD_REACTORS
330
BE
102
}
330
BE
100
AcDbScale
 70
     0
300
2:1
140
2.0
141
1.0
290
     0
  0
SCALE
  5
CC
102
{ACAD_REACTORS
330
BE
102
}
330
BE
100
AcDbScale
 70
     0
300
4:1
140
4.0
141
1.0
290
     0
  0
SCALE
  5
CD
102
{ACAD_REACTORS
330
BE
102
}
330
BE
100
AcDbScale
 70
     0
300
8:1
140
8.0
141
1.0
290
     0
  0
SCALE
  5
CE
102
{ACAD_REACTORS
330
BE
102
}
330
BE
100
AcDbScale
 70
     0
300
10:1
140
10.0
141
1.0
290
     0
  0
SCALE
  5
CF
102
{ACAD_REACTORS
330
BE
102
}
330
BE
100
AcDbScale
 70
     0
300
100:1
140
100.0
141
1.0
290
     0
  0
SCALE
  5
D0
102
{ACAD_REACTORS
330
BE
102
}
330
BE
100
AcDbScale
 70
     0
300
1/128" = 1'-0"
140
0.0078125
141
12.0
290
     0
  0
SCALE
  5
D1
102
{ACAD_REACTORS
330
BE
102
}
330
BE
100
AcDbScale
 70
     0
300
1/64" = 1'-0"
140
0.015625
141
12.0
290
     0
  0
SCALE
  5
D2
102
{ACAD_REACTORS
330
BE
102
}
330
BE
100
AcDbScale
 70
     0
300
1/32" = 1'-0"
140
0.03125
141
12.0
290
     0
  0
SCALE
  5
D3
102
{ACAD_REACTORS
330
BE
102
}
330
BE
100
AcDbScale
 70
     0
300
1/16" = 1'-0"
140
0.0625
141
12.0
290
     0
  0
SCALE
  5
D4
102
{ACAD_REACTORS
330
BE
102
}
330
BE
100
AcDbScale
 70
     0
300
3/32" = 1'-0"
140
0.09375
141
12.0
290
     0
  0
SCALE
  5
D5
102
{ACAD_REACTORS
330
BE
102
}
330
BE
100
AcDbScale
 70
     0
300
1/8" = 1'-0"
140
0.125
141
12.0
290
     0
  0
SCALE
  5
D6
102
{ACAD_REACTORS
330
BE
102
}
330
BE
100
AcDbScale
 70
     0
300
3/16" = 1'-0"
140
0.1875
141
12.0
290
     0
  0
SCALE
  5
D7
102
{ACAD_REACTORS
330
BE
102
}
330
BE
100
AcDbScale
 70
     0
300
1/4" = 1'-0"
140
0.25
141
12.0
290
     0
  0
SCALE
  5
D8
102
{ACAD_REACTORS
330
BE
102
}
330
BE
100
AcDbScale
 70
     0
300
3/8" = 1'-0"
140
0.375
141
12.0
290
     0
  0
SCALE
  5
D9
102
{ACAD_REACTORS
330
BE
102
}
330
BE
100
AcDbScale
 70
     0
300
1/2" = 1'-0"
140
0.5
141
12.0
290
     0
  0
SCALE
  5
DA
102
{ACAD_REACTORS
330
BE
102
}
330
BE
100
AcDbScale
 70
     0
300
3/4" = 1'-0"
140
0.75
141
12.0
290
     0
  0
SCALE
  5
DB
102
{ACAD_REACTORS
330
BE
102
}
330
BE
100
AcDbScale
 70
     0
300
1" = 1'-0"
140
1.0
141
12.0
290
     0
  0
SCALE
  5
DC
102
{ACAD_REACTORS
330
BE
102
}
330
BE
100
AcDbScale
 70
     0
300
1-1/2" = 1'-0"
140
1.5
141
12.0
290
     0
  0
SCALE
  5
DD
102
{ACAD_REACTORS
330
BE
102
}
330
BE
100
AcDbScale
 70
     0
300
3" = 1'-0"
140
3.0
141
12.0
290
     0
  0
SCALE
  5
DE
102
{ACAD_REACTORS
330
BE
102
}
330
BE
100
AcDbScale
 70
     0
300
6" = 1'-0"
140
6.0
141
12.0
290
     0
  0
SCALE
  5
DF
102
{ACAD_REACTORS
330
BE
102
}
330
BE
100
AcDbScale
 70
     0
300
1'-0" = 1'-0"
140
12.0
141
12.0
290
     0
  0
TABLESTYLE
  5
139B
102
{ACAD_REACTORS
330
139A
102
}
102
{ACAD_XDICTIONARY
360
14FF
102
}
330
139A
100
AcDbTableStyle
  3
Standard
 70
     0
 71
     0
 40
1.5
 41
1.5
280
     0
281
     0
  7
Standard
140
4.5
170
     2
 62
     0
 63
   257
283
     0
 90
        4
 91
        0
  1

274
    -2
284
     1
 64
     0
275
    -2
285
     1
 65
     0
276
    -2
286
     1
 66
     0
277
    -2
287
     1
 67
     0
278
    -2
288
     1
 68
     0
279
    -2
289
     1
 69
     0
  7
Standard
140
6.0
170
     5
 62
     0
 63
   257
283
     0
 90
        4
 91
        0
  1

274
    -2
284
     1
 64
     0
275
    -2
285
     1
 65
     0
276
    -2
286
     1
 66
     0
277
    -2
287
     1
 67
     0
278
    -2
288
     1
 68
     0
279
    -2
289
     1
 69
     0
  7
Standard
140
4.5
170
     5
 62
     0
 63
   257
283
     0
 90
        4
 91
        0
  1

274
    -2
284
     1
 64
     0
275
    -2
285
     1
 65
     0
276
    -2
286
     1
 66
     0
277
    -2
287
     1
 67
     0
278
    -2
288
     1
 68
     0
279
    -2
289
     1
 69
     0
  0
VISUALSTYLE
  5
2F
102
{ACAD_REACTORS
330
2A
102
}
330
2A
100
AcDbVisualStyle
  2
2dWireframe
 70
     4
177
     3
291
     0
 70
    58
 90
        0
176
     1
 90
        2
176
     1
 90
        0
176
     1
 90
        0
176
     1
 40
-0.6
176
     1
 40
-30.0
176
     1
 62
     7
176
     1
 90
        1
176
     1
 90
        4
176
     1
 62
     7
176
     1
 62
   257
176
     1
 90
        1
176
     1
 90
        1
176
     1
 40
1.0
176
     1
 90
        0
176
     1
 62
   257
176
     1
 40
1.0
176
     1
 90
        1
176
     1
 90
        6
176
     1
 90
        2
176
     1
 62
     7
176
     1
 90
        5
176
     1
 90
        0
176
     1
 90
        0
176
     1
290
     0
176
     1
 90
        1
176
     1
 40
0.0
176
     1
 90
        0
176
     1
290
     1
176
     1
290
     1
176
     1
290
     0
176
     1
290
     0
176
     1
290
     0
176
     1
290
     0
176
     1
290
     0
176
     1
290
     0
176
     1
290
     0
176
     1
 90
       50
176
     1
 40
0.0
176
     1
 40
1.0
176
     1
 90
        0
176
     1
 62
   178
420
        0
176
     1
 90
       50
176
     1
 90
        3
176
     1
 62
     5
420
      255
176
     1
290
     0
176
     1
 90
       50
176
     1
 90
       50
176
     1
 90
       50
176
     1
290
     0
176
     1
 90
       50
176
     1
 62
   256
176
     0
 40
1.0
176
     0
 90
        2
176
     1
  1
strokes_ogs.tif
176
     1
290
     0
176
     1
 40
1.0
176
     1
 40
1.0
176
     1
  0
VISUALSTYLE
  5
31
102
{ACAD_REACTORS
330
2A
102
}
330
2A
100
AcDbVisualStyle
  2
3D Hidden
 70
     6
177
     3
291
     0
 70
    58
 90
        1
176
     1
 90
        2
176
     1
 90
        2
176
     1
 90
        0
176
     1
 40
-0.6
176
     1
 40
-30.0
176
     1
 62
     7
176
     1
 90
        2
176
     1
 90
        2
176
     1
 62
     7
176
     1
 62
   257
176
     1
 90
        2
176
     1
 90
        1
176
     1
 40
40.0
176
     1
 90
        0
176
     1
 62
   257
176
     1
 40
1.0
176
     1
 90
        1
176
     1
 90
        6
176
     1
 90
        2
176
     1
 62
     7
176
     1
 90
        3
176
     1
 90
        0
176
     1
 90
        0
176
     1
290
     0
176
     1
 90
        1
176
     1
 40
0.0
176
     1
 90
        0
176
     1
290
     0
176
     1
290
     1
176
     1
290
     1
176
     1
290
     0
176
     1
290
     0
176
     1
290
     0
176
     1
290
     0
176
     1
290
     0
176
     1
290
     0
176
     1
 90
       50
176
     1
 40
0.0
176
     1
 40
1.0
176
     1
 90
        0
176
     1
 62
   178
420
        0
176
     1
 90
       50
176
     1
 90
        3
176
     1
 62
     5
420
      255
176
     1
290
     0
176
     1
 90
       50
176
     1
 90
       50
176
     1
 90
       50
176
     1
290
     0
176
     1
 90
       50
176
     1
 62
   256
176
     0
 40
1.0
176
     0
 90
        2
176
     1
  1
strokes_ogs.tif
176
     1
290
     0
176
     1
 40
1.0
176
     1
 40
1.0
176
     1
  0
VISUALSTYLE
  5
30
102
{ACAD_REACTORS
330
2A
102
}
330
2A
100
AcDbVisualStyle
  2
3dWireframe
 70
     5
177
     3
291
     0
 70
    58
 90
        0
176
     1
 90
        2
176
     1
 90
        0
176
     1
 90
        0
176
     1
 40
-0.6
176
     1
 40
-30.0
176
     1
 62
     7
176
     1
 90
        1
176
     1
 90
        4
176
     1
 62
     7
176
     1
 62
   257
176
     1
 90
        1
176
     1
 90
        1
176
     1
 40
1.0
176
     1
 90
        0
176
     1
 62
   257
176
     1
 40
1.0
176
     1
 90
        1
176
     1
 90
        6
176
     1
 90
        2
176
     1
 62
     7
176
     1
 90
        5
176
     1
 90
        0
176
     1
 90
        0
176
     1
290
     0
176
     1
 90
        1
176
     1
 40
0.0
176
     1
 90
        0
176
     1
290
     0
176
     1
290
     1
176
     1
290
     1
176
     1
290
     0
176
     1
290
     0
176
     1
290
     0
176
     1
290
     0
176
     1
290
     0
176
     1
290
     0
176
     1
 90
       50
176
     1
 40
0.0
176
     1
 40
1.0
176
     1
 90
        0
176
     1
 62
   178
420
        0
176
     1
 90
       50
176
     1
 90
        3
176
     1
 62
     5
420
      255
176
     1
290
     0
176
     1
 90
       50
176
     1
 90
       50
176
     1
 90
       50
176
     1
290
     0
176
     1
 90
       50
176
     1
 62
   256
176
     0
 40
1.0
176
     0
 90
        2
176
     1
  1
strokes_ogs.tif
176
     1
290
     0
176
     1
 40
1.0
176
     1
 40
1.0
176
     1
  0
VISUALSTYLE
  5
32
102
{ACAD_REACTORS
330
2A
102
}
330
2A
100
AcDbVisualStyle
  2
Basic
 70
     7
177
     3
291
     1
 70
    58
 90
        1
176
     1
 90
        0
176
     1
 90
        1
176
     1
 90
        0
176
     1
 40
-0.6
176
     1
 40
-30.0
176
     1
 62
     7
176
     1
 90
        0
176
     1
 90
        4
176
     1
 62
     7
176
     1
 62
   257
176
     1
 90
        1
176
     1
 90
        1
176
     1
 40
1.0
176
     1
 90
        8
176
     1
 62
     7
176
     1
 40
1.0
176
     1
 90
        1
176
     1
 90
        6
176
     1
 90
        2
176
     1
 62
     7
176
     1
 90
        5
176
     1
 90
        0
176
     1
 90
        0
176
     1
290
     0
176
     1
 90
        1
176
     1
 40
0.0
176
     1
 90
        0
176
     1
290
     0
176
     1
290
     1
176
     1
290
     1
176
     1
290
     0
176
     1
290
     0
176
     1
290
     0
176
     1
290
     0
176
     1
290
     0
176
     1
290
     0
176
     1
 90
       50
176
     1
 40
0.0
176
     1
 40
1.0
176
     1
 90
        0
176
     1
 62
   178
420
        0
176
     1
 90
       50
176
     1
 90
        3
176
     1
 62
     5
420
      255
176
     1
290
     0
176
     1
 90
       50
176
     1
 90
       50
176
     1
 90
       50
176
     1
290
     0
176
     1
 90
       50
176
     1
 62
   256
176
     0
 40
1.0
176
     0
 90
        2
176
     1
  1
strokes_ogs.tif
176
     1
290
     0
176
     1
 40
1.0
176
     1
 40
1.0
176
     1
  0
VISUALSTYLE
  5
36
102
{ACAD_REACTORS
330
2A
102
}
330
2A
100
AcDbVisualStyle
  2
Brighten
 70
    12
177
     3
291
     1
 70
    58
 90
        2
176
     1
 90
        2
176
     1
 90
        0
176
     1
 90
        0
176
     1
 40
-0.6
176
     1
 40
-30.0
176
     1
 62
     7
176
     1
 90
        1
176
     1
 90
        4
176
     1
 62
     7
176
     1
 62
   257
176
     1
 90
        1
176
     1
 90
        1
176
     1
 40
1.0
176
     1
 90
        8
176
     1
 62
     7
176
     1
 40
1.0
176
     1
 90
        1
176
     1
 90
        6
176
     1
 90
        2
176
     1
 62
     7
176
     1
 90
        5
176
     1
 90
        0
176
     1
 90
        0
176
     1
290
     0
176
     1
 90
        1
176
     1
 40
50.0
176
     1
 90
        0
176
     1
290
     0
176
     1
290
     1
176
     1
290
     1
176
     1
290
     0
176
     1
290
     0
176
     1
290
     0
176
     1
290
     0
176
     1
290
     0
176
     1
290
     0
176
     1
 90
       50
176
     1
 40
0.0
176
     1
 40
1.0
176
     1
 90
        0
176
     1
 62
   178
420
        0
176
     1
 90
       50
176
     1
 90
        3
176
     1
 62
     5
420
      255
176
     1
290
     0
176
     1
 90
       50
176
     1
 90
       50
176
     1
 90
       50
176
     1
290
     0
176
     1
 90
       50
176
     1
 62
   256
176
     0
 40
1.0
176
     0
 90
        2
176
     1
  1
strokes_ogs.tif
176
     1
290
     0
176
     1
 40
1.0
176
     1
 40
1.0
176
     1
  0
VISUALSTYLE
  5
3A
102
{ACAD_REACTORS
330
2A
102
}
330
2A
100
AcDbVisualStyle
  2
ColorChange
 70
    16
177
     3
291
     1
 70
    58
 90
        2
176
     1
 90
        2
176
     1
 90
        3
176
     1
 90
        0
176
     1
 40
-0.6
176
     1
 40
-30.0
176
     1
 62
     8
176
     1
 90
        1
176
     1
 90
        4
176
     1
 62
     7
176
     1
 62
   257
176
     1
 90
        1
176
     1
 90
        1
176
     1
 40
1.0
176
     1
 90
        8
176
     1
 62
     8
176
     1
 40
1.0
176
     1
 90
        1
176
     1
 90
        6
176
     1
 90
        2
176
     1
 62
     7
176
     1
 90
        5
176
     1
 90
        0
176
     1
 90
        0
176
     1
290
     0
176
     1
 90
        1
176
     1
 40
0.0
176
     1
 90
        0
176
     1
290
     0
176
     1
290
     1
176
     1
290
     1
176
     1
290
     0
176
     1
290
     0
176
     1
290
     0
176
     1
290
     0
176
     1
290
     0
176
     1
290
     0
176
     1
 90
       50
176
     1
 40
0.0
176
     1
 40
1.0
176
     1
 90
        0
176
     1
 62
   178
420
        0
176
     1
 90
       50
176
     1
 90
        3
176
     1
 62
     5
420
      255
176
     1
290
     0
176
     1
 90
       50
176
     1
 90
       50
176
     1
 90
       50
176
     1
290
     0
176
     1
 90
       50
176
     1
 62
   256
176
     0
 40
1.0
176
     0
 90
        2
176
     1
  1
strokes_ogs.tif
176
     1
290
     0
176
     1
 40
1.0
176
     1
 40
1.0
176
     1
  0
VISUALSTYLE
  5
34
102
{ACAD_REACTORS
330
2A
102
}
330
2A
100
AcDbVisualStyle
  2
Conceptual
 70
     9
177
     3
291
     0
 70
    58
 90
        3
176
     1
 90
        2
176
     1
 90
        0
176
     1
 90
        0
176
     1
 40
-0.6
176
     1
 40
-30.0
176
     1
 62
     7
176
     1
 90
        2
176
     1
 90
        2
176
     1
 62
     7
176
     1
 62
   257
176
     1
 90
        1
176
     1
 90
        1
176
     1
 40
40.0
176
     1
 90
        8
176
     1
 62
     7
176
     1
 40
1.0
176
     1
 90
        1
176
     1
 90
        6
176
     1
 90
        2
176
     1
 62
     7
176
     1
 90
        3
176
     1
 90
        0
176
     1
 90
        0
176
     1
290
     0
176
     1
 90
        1
176
     1
 40
0.0
176
     1
 90
        0
176
     1
290
     0
176
     1
290
     1
176
     1
290
     1
176
     1
290
     0
176
     1
290
     0
176
     1
290
     0
176
     1
290
     0
176
     1
290
     0
176
     1
290
     0
176
     1
 90
       50
176
     1
 40
0.0
176
     1
 40
1.0
176
     1
 90
        0
176
     1
 62
   178
420
        0
176
     1
 90
       50
176
     1
 90
        3
176
     1
 62
     5
420
      255
176
     1
290
     0
176
     1
 90
       50
176
     1
 90
       50
176
     1
 90
       50
176
     1
290
     0
176
     1
 90
       50
176
     1
 62
   256
176
     0
 40
1.0
176
     0
 90
        2
176
     1
  1
strokes_ogs.tif
176
     1
290
     0
176
     1
 40
1.0
176
     1
 40
1.0
176
     1
  0
VISUALSTYLE
  5
35
102
{ACAD_REACTORS
330
2A
102
}
330
2A
100
AcDbVisualStyle
  2
Dim
 70
    11
177
     3
291
     1
 70
    58
 90
        2
176
     1
 90
        2
176
     1
 90
        0
176
     1
 90
        0
176
     1
 40
-0.6
176
     1
 40
-30.0
176
     1
 62
     7
176
     1
 90
        1
176
     1
 90
        4
176
     1
 62
     7
176
     1
 62
   257
176
     1
 90
        1
176
     1
 90
        1
176
     1
 40
1.0
176
     1
 90
        8
176
     1
 62
     7
176
     1
 40
1.0
176
     1
 90
        1
176
     1
 90
        6
176
     1
 90
        2
176
     1
 62
     7
176
     1
 90
        5
176
     1
 90
        0
176
     1
 90
        0
176
     1
290
     0
176
     1
 90
        1
176
     1
 40
-50.0
176
     1
 90
        0
176
     1
290
     0
176
     1
290
     1
176
     1
290
     1
176
     1
290
     0
176
     1
290
     0
176
     1
290
     0
176
     1
290
     0
176
     1
290
     0
176
     1
290
     0
176
     1
 90
       50
176
     1
 40
0.0
176
     1
 40
1.0
176
     1
 90
        0
176
     1
 62
   178
420
        0
176
     1
 90
       50
176
     1
 90
        3
176
     1
 62
     5
420
      255
176
     1
290
     0
176
     1
 90
       50
176
     1
 90
       50
176
     1
 90
       50
176
     1
290
     0
176
     1
 90
       50
176
     1
 62
   256
176
     0
 40
1.0
176
     0
 90
        2
176
     1
  1
strokes_ogs.tif
176
     1
290
     0
176
     1
 40
1.0
176
     1
 40
1.0
176
     1
  0
VISUALSTYLE
  5
1394
102
{ACAD_REACTORS
330
2A
102
}
330
2A
100
AcDbVisualStyle
  2
EdgeColorOff
 70
    22
177
     3
291
     1
 70
    58
 90
        2
176
     0
 90
        2
176
     0
 90
        0
176
     0
 90
        0
176
     0
 40
0.6
176
     0
 40
30.0
176
     0
 62
     7
420
 16777215
176
     0
 90
        1
176
     0
 90
        4
176
     0
 62
     7
176
     0
 62
   257
176
     0
 90
        1
176
     0
 90
        1
176
     0
 40
1.0
176
     0
 90
        8
176
     2
 62
     7
176
     0
 40
1.0
176
     0
 90
        1
176
     0
 90
        6
176
     0
 90
        2
176
     0
 62
     7
176
     0
 90
        5
176
     0
 90
        0
176
     0
 90
        0
176
     0
290
     0
176
     0
 90
        1
176
     0
 40
0.0
176
     0
 90
        0
176
     0
290
     0
176
     0
290
     1
176
     0
290
     1
176
     0
290
     0
176
     0
290
     0
176
     0
290
     0
176
     0
290
     0
176
     0
290
     0
176
     0
290
     0
176
     0
 90
       50
176
     0
 40
0.0
176
     0
 40
1.0
176
     0
 90
        0
176
     0
 62
   178
420
        0
176
     0
 90
       50
176
     0
 90
        3
176
     0
 62
     5
420
      255
176
     0
290
     0
176
     0
 90
       50
176
     0
 90
       50
176
     0
 90
       50
176
     0
290
     0
176
     0
 90
       50
176
     0
 62
   256
176
     0
 40
1.0
176
     0
 90
        2
176
     0
  1
strokes_ogs.tif
176
     0
290
     0
176
     0
 40
1.0
176
     0
 40
1.0
176
     0
  0
VISUALSTYLE
  5
39
102
{ACAD_REACTORS
330
2A
102
}
330
2A
100
AcDbVisualStyle
  2
Facepattern
 70
    15
177
     3
291
     1
 70
    58
 90
        2
176
     1
 90
        2
176
     1
 90
        0
176
     1
 90
        0
176
     1
 40
-0.6
176
     1
 40
-30.0
176
     1
 62
     7
176
     1
 90
        1
176
     1
 90
        4
176
     1
 62
     7
176
     1
 62
   257
176
     1
 90
        1
176
     1
 90
        1
176
     1
 40
1.0
176
     1
 90
        8
176
     1
 62
     7
176
     1
 40
1.0
176
     1
 90
        1
176
     1
 90
        6
176
     1
 90
        2
176
     1
 62
     7
176
     1
 90
        5
176
     1
 90
        0
176
     1
 90
        0
176
     1
290
     0
176
     1
 90
        1
176
     1
 40
0.0
176
     1
 90
        0
176
     1
290
     0
176
     1
290
     1
176
     1
290
     1
176
     1
290
     0
176
     1
290
     0
176
     1
290
     0
176
     1
290
     0
176
     1
290
     0
176
     1
290
     0
176
     1
 90
       50
176
     1
 40
0.0
176
     1
 40
1.0
176
     1
 90
        0
176
     1
 62
   178
420
        0
176
     1
 90
       50
176
     1
 90
        3
176
     1
 62
     5
420
      255
176
     1
290
     0
176
     1
 90
       50
176
     1
 90
       50
176
     1
 90
       50
176
     1
290
     0
176
     1
 90
       50
176
     1
 62
   256
176
     0
 40
1.0
176
     0
 90
        2
176
     1
  1
strokes_ogs.tif
176
     1
290
     0
176
     1
 40
1.0
176
     1
 40
1.0
176
     1
  0
VISUALSTYLE
  5
2B
102
{ACAD_REACTORS
330
2A
102
}
330
2A
100
AcDbVisualStyle
  2
Flat
 70
     0
177
     3
291
     1
 70
    58
 90
        2
176
     1
 90
        1
176
     1
 90
        1
176
     1
 90
        2
176
     1
 40
-0.6
176
     1
 40
30.0
176
     1
 62
     7
176
     1
 90
        0
176
     1
 90
        4
176
     1
 62
     7
176
     1
 62
   257
176
     1
 90
        1
176
     1
 90
        1
176
     1
 40
1.0
176
     1
 90
        8
176
     1
 62
     7
176
     1
 40
1.0
176
     1
 90
        1
176
     1
 90
        6
176
     1
 90
        2
176
     1
 62
     7
176
     1
 90
        5
176
     1
 90
        0
176
     1
 90
        0
176
     1
290
     0
176
     1
 90
       13
176
     1
 40
0.0
176
     1
 90
        0
176
     1
290
     0
176
     1
290
     1
176
     1
290
     1
176
     1
290
     0
176
     1
290
     0
176
     1
290
     0
176
     1
290
     0
176
     1
290
     0
176
     1
290
     0
176
     1
 90
       50
176
     1
 40
0.0
176
     1
 40
1.0
176
     1
 90
        0
176
     1
 62
   178
420
        0
176
     1
 90
       50
176
     1
 90
        3
176
     1
 62
     5
420
      255
176
     1
290
     0
176
     1
 90
       50
176
     1
 90
       50
176
     1
 90
       50
176
     1
290
     0
176
     1
 90
       50
176
     1
 62
   256
176
     0
 40
1.0
176
     0
 90
        2
176
     1
  1
strokes_ogs.tif
176
     1
290
     0
176
     1
 40
1.0
176
     1
 40
1.0
176
     1
  0
VISUALSTYLE
  5
2C
102
{ACAD_REACTORS
330
2A
102
}
330
2A
100
AcDbVisualStyle
  2
FlatWithEdges
 70
     1
177
     3
291
     1
 70
    58
 90
        2
176
     1
 90
        1
176
     1
 90
        1
176
     1
 90
        2
176
     1
 40
-0.6
176
     1
 40
30.0
176
     1
 62
     7
176
     1
 90
        1
176
     1
 90
        4
176
     1
 62
     7
176
     1
 62
   257
176
     1
 90
        1
176
     1
 90
        1
176
     1
 40
1.0
176
     1
 90
        0
176
     1
 62
   257
176
     1
 40
1.0
176
     1
 90
        1
176
     1
 90
        6
176
     1
 90
        2
176
     1
 62
     7
176
     1
 90
        5
176
     1
 90
        0
176
     1
 90
        0
176
     1
290
     0
176
     1
 90
       13
176
     1
 40
0.0
176
     1
 90
        0
176
     1
290
     0
176
     1
290
     1
176
     1
290
     1
176
     1
290
     0
176
     1
290
     0
176
     1
290
     0
176
     1
290
     0
176
     1
290
     0
176
     1
290
     0
176
     1
 90
       50
176
     1
 40
0.0
176
     1
 40
1.0
176
     1
 90
        0
176
     1
 62
   178
420
        0
176
     1
 90
       50
176
     1
 90
        3
176
     1
 62
     5
420
      255
176
     1
290
     0
176
     1
 90
       50
176
     1
 90
       50
176
     1
 90
       50
176
     1
290
     0
176
     1
 90
       50
176
     1
 62
   256
176
     0
 40
1.0
176
     0
 90
        2
176
     1
  1
strokes_ogs.tif
176
     1
290
     0
176
     1
 40
1.0
176
     1
 40
1.0
176
     1
  0
VISUALSTYLE
  5
2D
102
{ACAD_REACTORS
330
2A
102
}
330
2A
100
AcDbVisualStyle
  2
Gouraud
 70
     2
177
     3
291
     1
 70
    58
 90
        2
176
     1
 90
        2
176
     1
 90
        1
176
     1
 90
        2
176
     1
 40
-0.6
176
     1
 40
30.0
176
     1
 62
     7
176
     1
 90
        0
176
     1
 90
        4
176
     1
 62
     7
176
     1
 62
   257
176
     1
 90
        1
176
     1
 90
        1
176
     1
 40
1.0
176
     1
 90
        0
176
     1
 62
     7
176
     1
 40
1.0
176
     1
 90
        1
176
     1
 90
        6
176
     1
 90
        2
176
     1
 62
     7
176
     1
 90
        5
176
     1
 90
        0
176
     1
 90
        0
176
     1
290
     0
176
     1
 90
       13
176
     1
 40
0.0
176
     1
 90
        0
176
     1
290
     0
176
     1
290
     1
176
     1
290
     1
176
     1
290
     0
176
     1
290
     0
176
     1
290
     0
176
     1
290
     0
176
     1
290
     0
176
     1
290
     0
176
     1
 90
       50
176
     1
 40
0.0
176
     1
 40
1.0
176
     1
 90
        0
176
     1
 62
   178
420
        0
176
     1
 90
       50
176
     1
 90
        3
176
     1
 62
     5
420
      255
176
     1
290
     0
176
     1
 90
       50
176
     1
 90
       50
176
     1
 90
       50
176
     1
290
     0
176
     1
 90
       50
176
     1
 62
   256
176
     0
 40
1.0
176
     0
 90
        2
176
     1
  1
strokes_ogs.tif
176
     1
290
     0
176
     1
 40
1.0
176
     1
 40
1.0
176
     1
  0
VISUALSTYLE
  5
2E
102
{ACAD_REACTORS
330
2A
102
}
330
2A
100
AcDbVisualStyle
  2
GouraudWithEdges
 70
     3
177
     3
291
     1
 70
    58
 90
        2
176
     1
 90
        2
176
     1
 90
        1
176
     1
 90
        2
176
     1
 40
-0.6
176
     1
 40
30.0
176
     1
 62
     7
176
     1
 90
        1
176
     1
 90
        4
176
     1
 62
     7
176
     1
 62
   257
176
     1
 90
        1
176
     1
 90
        1
176
     1
 40
1.0
176
     1
 90
        0
176
     1
 62
   257
176
     1
 40
1.0
176
     1
 90
        1
176
     1
 90
        6
176
     1
 90
        2
176
     1
 62
     7
176
     1
 90
        5
176
     1
 90
        0
176
     1
 90
        0
176
     1
290
     0
176
     1
 90
       13
176
     1
 40
0.0
176
     1
 90
        0
176
     1
290
     0
176
     1
290
     1
176
     1
290
     1
176
     1
290
     0
176
     1
290
     0
176
     1
290
     0
176
     1
290
     0
176
     1
290
     0
176
     1
290
     0
176
     1
 90
       50
176
     1
 40
0.0
176
     1
 40
1.0
176
     1
 90
        0
176
     1
 62
   178
420
        0
176
     1
 90
       50
176
     1
 90
        3
176
     1
 62
     5
420
      255
176
     1
290
     0
176
     1
 90
       50
176
     1
 90
       50
176
     1
 90
       50
176
     1
290
     0
176
     1
 90
       50
176
     1
 62
   256
176
     0
 40
1.0
176
     0
 90
        2
176
     1
  1
strokes_ogs.tif
176
     1
290
     0
176
     1
 40
1.0
176
     1
 40
1.0
176
     1
  0
VISUALSTYLE
  5
1391
102
{ACAD_REACTORS
330
2A
102
}
330
2A
100
AcDbVisualStyle
  2
Hidden
 70
     6
177
     3
291
     0
 70
    58
 90
        1
176
     1
 90
        2
176
     1
 90
        2
176
     1
 90
        0
176
     1
 40
0.6
176
     1
 40
30.0
176
     1
 62
     7
420
 16777215
176
     1
 90
        2
176
     1
 90
        2
176
     1
 62
     7
176
     1
 62
   257
176
     1
 90
        2
176
     1
 90
        1
176
     1
 40
40.0
176
     1
 90
        0
176
     1
 62
   257
176
     1
 40
1.0
176
     1
 90
        1
176
     1
 90
        6
176
     1
 90
        2
176
     1
 62
     7
176
     1
 90
        3
176
     1
 90
        0
176
     1
 90
        0
176
     1
290
     0
176
     1
 90
        1
176
     1
 40
0.0
176
     1
 90
        0
176
     1
290
     0
176
     1
290
     1
176
     1
290
     1
176
     1
290
     0
176
     1
290
     0
176
     1
290
     0
176
     1
290
     0
176
     1
290
     0
176
     1
290
     0
176
     1
 90
       50
176
     1
 40
0.0
176
     1
 40
1.0
176
     1
 90
        0
176
     1
 62
   178
420
        0
176
     1
 90
       50
176
     1
 90
        3
176
     1
 62
     5
420
      255
176
     1
290
     0
176
     1
 90
       50
176
     1
 90
       50
176
     1
 90
       50
176
     1
290
     0
176
     1
 90
       50
176
     1
 62
   256
176
     0
 40
1.0
176
     0
 90
        2
176
     1
  1
strokes_ogs.tif
176
     1
290
     0
176
     1
 40
1.0
176
     1
 40
1.0
176
     1
  0
VISUALSTYLE
  5
1392
102
{ACAD_REACTORS
330
2A
102
}
330
2A
100
AcDbVisualStyle
  2
JitterOff
 70
    20
177
     3
291
     1
 70
    58
 90
        2
176
     0
 90
        2
176
     0
 90
        0
176
     0
 90
        0
176
     0
 40
0.6
176
     0
 40
30.0
176
     0
 62
     7
420
 16777215
176
     0
 90
        1
176
     0
 90
        4
176
     0
 62
     7
176
     0
 62
   257
176
     0
 90
        1
176
     0
 90
        1
176
     0
 40
1.0
176
     0
 90
       10
176
     2
 62
     7
176
     0
 40
1.0
176
     0
 90
        1
176
     0
 90
        6
176
     0
 90
        2
176
     0
 62
     7
176
     0
 90
        5
176
     0
 90
        0
176
     0
 90
        0
176
     0
290
     0
176
     0
 90
        1
176
     0
 40
0.0
176
     0
 90
        0
176
     0
290
     0
176
     0
290
     1
176
     0
290
     1
176
     0
290
     0
176
     0
290
     0
176
     0
290
     0
176
     0
290
     0
176
     0
290
     0
176
     0
290
     0
176
     0
 90
       50
176
     0
 40
0.0
176
     0
 40
1.0
176
     0
 90
        0
176
     0
 62
   178
420
        0
176
     0
 90
       50
176
     0
 90
        3
176
     0
 62
     5
420
      255
176
     0
290
     0
176
     0
 90
       50
176
     0
 90
       50
176
     0
 90
       50
176
     0
290
     0
176
     0
 90
       50
176
     0
 62
   256
176
     0
 40
1.0
176
     0
 90
        2
176
     0
  1
strokes_ogs.tif
176
     0
290
     0
176
     0
 40
1.0
176
     0
 40
1.0
176
     0
  0
VISUALSTYLE
  5
38
102
{ACAD_REACTORS
330
2A
102
}
330
2A
100
AcDbVisualStyle
  2
Linepattern
 70
    14
177
     3
291
     1
 70
    58
 90
        2
176
     1
 90
        2
176
     1
 90
        0
176
     1
 90
        0
176
     1
 40
-0.6
176
     1
 40
-30.0
176
     1
 62
     7
176
     1
 90
        1
176
     1
 90
        4
176
     1
 62
     7
176
     1
 62
   257
176
     1
 90
        7
176
     1
 90
        7
176
     1
 40
1.0
176
     1
 90
        8
176
     1
 62
     7
176
     1
 40
1.0
176
     1
 90
        1
176
     1
 90
        6
176
     1
 90
        2
176
     1
 62
     7
176
     1
 90
        5
176
     1
 90
        0
176
     1
 90
        0
176
     1
290
     0
176
     1
 90
        1
176
     1
 40
0.0
176
     1
 90
        0
176
     1
290
     0
176
     1
290
     1
176
     1
290
     1
176
     1
290
     0
176
     1
290
     0
176
     1
290
     0
176
     1
290
     0
176
     1
290
     0
176
     1
290
     0
176
     1
 90
       50
176
     1
 40
0.0
176
     1
 40
1.0
176
     1
 90
        0
176
     1
 62
   178
420
        0
176
     1
 90
       50
176
     1
 90
        3
176
     1
 62
     5
420
      255
176
     1
290
     0
176
     1
 90
       50
176
     1
 90
       50
176
     1
 90
       50
176
     1
290
     0
176
     1
 90
       50
176
     1
 62
   256
176
     0
 40
1.0
176
     0
 90
        2
176
     1
  1
strokes_ogs.tif
176
     1
290
     0
176
     1
 40
1.0
176
     1
 40
1.0
176
     1
  0
VISUALSTYLE
  5
1393
102
{ACAD_REACTORS
330
2A
102
}
330
2A
100
AcDbVisualStyle
  2
OverhangOff
 70
    21
177
     3
291
     1
 70
    58
 90
        2
176
     0
 90
        2
176
     0
 90
        0
176
     0
 90
        0
176
     0
 40
0.6
176
     0
 40
30.0
176
     0
 62
     7
420
 16777215
176
     0
 90
        1
176
     0
 90
        4
176
     0
 62
     7
176
     0
 62
   257
176
     0
 90
        1
176
     0
 90
        1
176
     0
 40
1.0
176
     0
 90
        9
176
     2
 62
     7
176
     0
 40
1.0
176
     0
 90
        1
176
     0
 90
        6
176
     0
 90
        2
176
     0
 62
     7
176
     0
 90
        5
176
     0
 90
        0
176
     0
 90
        0
176
     0
290
     0
176
     0
 90
        1
176
     0
 40
0.0
176
     0
 90
        0
176
     0
290
     0
176
     0
290
     1
176
     0
290
     1
176
     0
290
     0
176
     0
290
     0
176
     0
290
     0
176
     0
290
     0
176
     0
290
     0
176
     0
290
     0
176
     0
 90
       50
176
     0
 40
0.0
176
     0
 40
1.0
176
     0
 90
        0
176
     0
 62
   178
420
        0
176
     0
 90
       50
176
     0
 90
        3
176
     0
 62
     5
420
      255
176
     0
290
     0
176
     0
 90
       50
176
     0
 90
       50
176
     0
 90
       50
176
     0
290
     0
176
     0
 90
       50
176
     0
 62
   256
176
     0
 40
1.0
176
     0
 90
        2
176
     0
  1
strokes_ogs.tif
176
     0
290
     0
176
     0
 40
1.0
176
     0
 40
1.0
176
     0
  0
VISUALSTYLE
  5
33
102
{ACAD_REACTORS
330
2A
102
}
330
2A
100
AcDbVisualStyle
  2
Realistic
 70
     8
177
     3
291
     0
 70
    58
 90
        2
176
     1
 90
        2
176
     1
 90
        0
176
     1
 90
        0
176
     1
 40
-0.6
176
     1
 40
-30.0
176
     1
 62
     7
176
     1
 90
        1
176
     1
 90
        0
176
     1
 62
     7
176
     1
 62
   257
176
     1
 90
        1
176
     1
 90
        1
176
     1
 40
1.0
176
     1
 90
        8
176
     1
 62
     8
176
     1
 40
1.0
176
     1
 90
        1
176
     1
 90
        6
176
     1
 90
        2
176
     1
 62
     7
176
     1
 90
        5
176
     1
 90
        0
176
     1
 90
        0
176
     1
290
     0
176
     1
 90
       13
176
     1
 40
0.0
176
     1
 90
        0
176
     1
290
     0
176
     1
290
     1
176
     1
290
     1
176
     1
290
     0
176
     1
290
     0
176
     1
290
     0
176
     1
290
     0
176
     1
290
     0
176
     1
290
     0
176
     1
 90
       50
176
     1
 40
0.0
176
     1
 40
1.0
176
     1
 90
        0
176
     1
 62
   178
420
        0
176
     1
 90
       50
176
     1
 90
        3
176
     1
 62
     5
420
      255
176
     1
290
     0
176
     1
 90
       50
176
     1
 90
       50
176
     1
 90
       50
176
     1
290
     0
176
     1
 90
       50
176
     1
 62
   256
176
     0
 40
1.0
176
     0
 90
        2
176
     1
  1
strokes_ogs.tif
176
     1
290
     0
176
     1
 40
1.0
176
     1
 40
1.0
176
     1
  0
VISUALSTYLE
  5
1399
102
{ACAD_REACTORS
330
2A
102
}
330
2A
100
AcDbVisualStyle
  2
Shaded
 70
    27
177
     3
291
     0
 70
    58
 90
        2
176
     1
 90
        2
176
     1
 90
        1
176
     1
 90
        2
176
     1
 40
0.6
176
     1
 40
30.0
176
     1
 62
     7
420
 16777215
176
     1
 90
        0
176
     1
 90
        4
176
     1
 62
     7
176
     1
 62
   257
176
     1
 90
        1
176
     1
 90
        1
176
     1
 40
1.0
176
     1
 90
        8
176
     1
 62
   257
176
     1
 40
1.0
176
     1
 90
        1
176
     1
 90
        6
176
     1
 90
        2
176
     1
 62
     8
420
  7895160
176
     1
 90
        3
176
     1
 90
        0
176
     1
 90
        0
176
     1
290
     0
176
     1
 90
        5
176
     1
 40
0.0
176
     1
 90
        0
176
     1
290
     0
176
     1
290
     1
176
     1
290
     1
176
     1
290
     0
176
     1
290
     0
176
     1
290
     0
176
     1
290
     0
176
     1
290
     0
176
     1
290
     0
176
     1
 90
       50
176
     1
 40
0.0
176
     1
 40
1.0
176
     1
 90
        0
176
     1
 62
   178
420
        0
176
     1
 90
       50
176
     1
 90
        3
176
     1
 62
     5
420
      255
176
     1
290
     0
176
     1
 90
       50
176
     1
 90
       50
176
     1
 90
       50
176
     1
290
     0
176
     1
 90
       50
176
     1
 62
   256
176
     0
 40
1.0
176
     0
 90
        2
176
     1
  1
strokes_ogs.tif
176
     1
290
     0
176
     1
 40
1.0
176
     1
 40
1.0
176
     1
  0
VISUALSTYLE
  5
1398
102
{ACAD_REACTORS
330
2A
102
}
330
2A
100
AcDbVisualStyle
  2
Shaded with edges
 70
    26
177
     3
291
     0
 70
    58
 90
        2
176
     1
 90
        2
176
     1
 90
        1
176
     1
 90
        2
176
     1
 40
0.6
176
     1
 40
30.0
176
     1
 62
     7
420
 16777215
176
     1
 90
        1
176
     1
 90
       10
176
     1
 62
     7
176
     1
 62
   257
176
     1
 90
        2
176
     1
 90
        1
176
     1
 40
1.0
176
     1
 90
        8
176
     1
 62
   257
176
     1
 40
1.0
176
     1
 90
        1
176
     1
 90
        6
176
     1
 90
        2
176
     1
 62
     7
176
     1
 90
        3
176
     1
 90
        0
176
     1
 90
        0
176
     1
290
     0
176
     1
 90
        5
176
     1
 40
0.0
176
     1
 90
        0
176
     1
290
     0
176
     1
290
     1
176
     1
290
     1
176
     1
290
     0
176
     1
290
     0
176
     1
290
     0
176
     1
290
     0
176
     1
290
     0
176
     1
290
     0
176
     1
 90
       50
176
     1
 40
0.0
176
     1
 40
1.0
176
     1
 90
        0
176
     1
 62
   178
420
        0
176
     1
 90
       50
176
     1
 90
        3
176
     1
 62
     5
420
      255
176
     1
290
     0
176
     1
 90
       50
176
     1
 90
       50
176
     1
 90
       50
176
     1
290
     0
176
     1
 90
       50
176
     1
 62
   256
176
     0
 40
1.0
176
     0
 90
        2
176
     1
  1
strokes_ogs.tif
176
     1
290
     0
176
     1
 40
1.0
176
     1
 40
1.0
176
     1
  0
VISUALSTYLE
  5
1395
102
{ACAD_REACTORS
330
2A
102
}
330
2A
100
AcDbVisualStyle
  2
Shades of Gray
 70
    23
177
     3
291
     0
 70
    58
 90
        2
176
     1
 90
        2
176
     1
 90
        3
176
     1
 90
        0
176
     1
 40
0.6
176
     1
 40
30.0
176
     1
 62
     7
420
 16777215
176
     1
 90
        2
176
     1
 90
        2
176
     1
 62
     7
176
     1
 62
     7
176
     1
 90
        1
176
     1
 90
        1
176
     1
 40
40.0
176
     1
 90
        8
176
     1
 62
     7
176
     1
 40
1.0
176
     1
 90
        1
176
     1
 90
        6
176
     1
 90
        2
176
     1
 62
     7
176
     1
 90
        3
176
     1
 90
        0
176
     1
 90
        0
176
     1
290
     0
176
     1
 90
        1
176
     1
 40
0.0
176
     1
 90
        0
176
     1
290
     0
176
     1
290
     1
176
     1
290
     1
176
     1
290
     0
176
     1
290
     0
176
     1
290
     0
176
     1
290
     0
176
     1
290
     0
176
     1
290
     0
176
     1
 90
       50
176
     1
 40
0.0
176
     1
 40
1.0
176
     1
 90
        0
176
     1
 62
   178
420
        0
176
     1
 90
       50
176
     1
 90
        3
176
     1
 62
     5
420
      255
176
     1
290
     0
176
     1
 90
       50
176
     1
 90
       50
176
     1
 90
       50
176
     1
290
     0
176
     1
 90
       50
176
     1
 62
   256
176
     0
 40
1.0
176
     0
 90
        2
176
     1
  1
strokes_ogs.tif
176
     1
290
     0
176
     1
 40
1.0
176
     1
 40
1.0
176
     1
  0
VISUALSTYLE
  5
1396
102
{ACAD_REACTORS
330
2A
102
}
330
2A
100
AcDbVisualStyle
  2
Sketchy
 70
    24
177
     3
291
     0
 70
    58
 90
        1
176
     1
 90
        2
176
     1
 90
        2
176
     1
 90
        0
176
     1
 40
0.6
176
     1
 40
30.0
176
     1
 62
     7
420
 16777215
176
     1
 90
        2
176
     1
 90
        2
176
     1
 62
     7
176
     1
 62
     7
176
     1
 90
        1
176
     1
 90
        1
176
     1
 40
40.0
176
     1
 90
       11
176
     1
 62
     7
176
     1
 40
1.0
176
     1
 90
        1
176
     1
 90
        6
176
     1
 90
        2
176
     1
 62
     7
176
     1
 90
        6
176
     1
 90
        0
176
     1
 90
        0
176
     1
290
     0
176
     1
 90
        1
176
     1
 40
0.0
176
     1
 90
        0
176
     1
290
     0
176
     1
290
     1
176
     1
290
     1
176
     1
290
     0
176
     1
290
     0
176
     1
290
     0
176
     1
290
     0
176
     1
290
     0
176
     1
290
     0
176
     1
 90
       50
176
     1
 40
0.0
176
     1
 40
1.0
176
     1
 90
        0
176
     1
 62
   178
420
        0
176
     1
 90
       50
176
     1
 90
        3
176
     1
 62
     5
420
      255
176
     1
290
     0
176
     1
 90
       50
176
     1
 90
       50
176
     1
 90
       50
176
     1
290
     0
176
     1
 90
       50
176
     1
 62
   256
176
     0
 40
1.0
176
     0
 90
        2
176
     1
  1
strokes_ogs.tif
176
     1
290
     0
176
     1
 40
1.0
176
     1
 40
1.0
176
     1
  0
VISUALSTYLE
  5
37
102
{ACAD_REACTORS
330
2A
102
}
330
2A
100
AcDbVisualStyle
  2
Thicken
 70
    13
177
     3
291
     1
 70
    58
 90
        2
176
     1
 90
        2
176
     1
 90
        0
176
     1
 90
        0
176
     1
 40
-0.6
176
     1
 40
-30.0
176
     1
 62
     7
176
     1
 90
        1
176
     1
 90
        4
176
     1
 62
     7
176
     1
 62
   257
176
     1
 90
        1
176
     1
 90
        1
176
     1
 40
1.0
176
     1
 90
       12
176
     1
 62
     7
176
     1
 40
1.0
176
     1
 90
        1
176
     1
 90
        6
176
     1
 90
        2
176
     1
 62
     7
176
     1
 90
        5
176
     1
 90
        0
176
     1
 90
        0
176
     1
290
     0
176
     1
 90
        1
176
     1
 40
0.0
176
     1
 90
        0
176
     1
290
     0
176
     1
290
     1
176
     1
290
     1
176
     1
290
     0
176
     1
290
     0
176
     1
290
     0
176
     1
290
     0
176
     1
290
     0
176
     1
290
     0
176
     1
 90
       50
176
     1
 40
0.0
176
     1
 40
1.0
176
     1
 90
        0
176
     1
 62
   178
420
        0
176
     1
 90
       50
176
     1
 90
        3
176
     1
 62
     5
420
      255
176
     1
290
     0
176
     1
 90
       50
176
     1
 90
       50
176
     1
 90
       50
176
     1
290
     0
176
     1
 90
       50
176
     1
 62
   256
176
     0
 40
1.0
176
     0
 90
        2
176
     1
  1
strokes_ogs.tif
176
     1
290
     0
176
     1
 40
1.0
176
     1
 40
1.0
176
     1
  0
VISUALSTYLE
  5
1390
102
{ACAD_REACTORS
330
2A
102
}
330
2A
100
AcDbVisualStyle
  2
Wireframe
 70
     5
177
     3
291
     0
 70
    58
 90
        0
176
     1
 90
        2
176
     1
 90
        0
176
     1
 90
        0
176
     1
 40
0.6
176
     1
 40
30.0
176
     1
 62
     7
420
 16777215
176
     1
 90
        1
176
     1
 90
        4
176
     1
 62
     7
176
     1
 62
   257
176
     1
 90
        1
176
     1
 90
        1
176
     1
 40
1.0
176
     1
 90
        0
176
     1
 62
   257
176
     1
 40
1.0
176
     1
 90
        1
176
     1
 90
        6
176
     1
 90
        2
176
     1
 62
     7
176
     1
 90
        3
176
     1
 90
        0
176
     1
 90
        0
176
     1
290
     0
176
     1
 90
        1
176
     1
 40
0.0
176
     1
 90
        0
176
     1
290
     0
176
     1
290
     1
176
     1
290
     1
176
     1
290
     0
176
     1
290
     0
176
     1
290
     0
176
     1
290
     0
176
     1
290
     0
176
     1
290
     0
176
     1
 90
       50
176
     1
 40
0.0
176
     1
 40
1.0
176
     1
 90
        0
176
     1
 62
   178
420
        0
176
     1
 90
       50
176
     1
 90
        3
176
     1
 62
     5
420
      255
176
     1
290
     0
176
     1
 90
       50
176
     1
 90
       50
176
     1
 90
       50
176
     1
290
     0
176
     1
 90
       50
176
     1
 62
   256
176
     0
 40
1.0
176
     0
 90
        2
176
     1
  1
strokes_ogs.tif
176
     1
290
     0
176
     1
 40
1.0
176
     1
 40
1.0
176
     1
  0
VISUALSTYLE
  5
1397
102
{ACAD_REACTORS
330
2A
102
}
330
2A
100
AcDbVisualStyle
  2
X-Ray
 70
    25
177
     3
291
     0
 70
    58
 90
        2
176
     1
 90
        2
176
     1
 90
        1
176
     1
 90
        1
176
     1
 40
0.5
176
     1
 40
30.0
176
     1
 62
     7
420
 16777215
176
     1
 90
        1
176
     1
 90
        0
176
     1
 62
     7
176
     1
 62
   257
176
     1
 90
        1
176
     1
 90
        1
176
     1
 40
1.0
176
     1
 90
        8
176
     1
 62
     7
176
     1
 40
1.0
176
     1
 90
        1
176
     1
 90
        6
176
     1
 90
        2
176
     1
 62
     7
176
     1
 90
        3
176
     1
 90
        0
176
     1
 90
        0
176
     1
290
     0
176
     1
 90
       13
176
     1
 40
0.0
176
     1
 90
        0
176
     1
290
     0
176
     1
290
     1
176
     1
290
     1
176
     1
290
     0
176
     1
290
     0
176
     1
290
     0
176
     1
290
     0
176
     1
290
     0
176
     1
290
     0
176
     1
 90
       50
176
     1
 40
0.0
176
     1
 40
1.0
176
     1
 90
        0
176
     1
 62
   178
420
        0
176
     1
 90
       50
176
     1
 90
        3
176
     1
 62
     5
420
      255
176
     1
290
     0
176
     1
 90
       50
176
     1
 90
       50
176
     1
 90
       50
176
     1
290
     0
176
     1
 90
       50
176
     1
 62
   256
176
     0
 40
1.0
176
     0
 90
        2
176
     1
  1
strokes_ogs.tif
176
     1
290
     0
176
     1
 40
1.0
176
     1
 40
1.0
176
     1
  0
DICTIONARYVAR
  5
139E
102
{ACAD_REACTORS
330
1384
102
}
330
1384
100
DictionaryVariables
280
     0
  1
1:1
  0
DICTIONARYVAR
  5
13A0
102
{ACAD_REACTORS
330
1384
102
}
330
1384
100
DictionaryVariables
280
     0
  1
Standard
  0
DICTIONARYVAR
  5
139F
102
{ACAD_REACTORS
330
1384
102
}
330
1384
100
DictionaryVariables
280
     0
  1
Standard
  0
DICTIONARYVAR
  5
138A
102
{ACAD_REACTORS
330
1384
102
}
330
1384
100
DictionaryVariables
280
     0
  1
2
  0
DICTIONARYVAR
  5
138B
102
{ACAD_REACTORS
330
1384
102
}
330
1384
100
DictionaryVariables
280
     0
  1
1
  0
DICTIONARYVAR
  5
13A1
102
{ACAD_REACTORS
330
1384
102
}
330
1384
100
DictionaryVariables
280
     0
  1
0
  0
DICTIONARY
  5
14FF
330
139B
100
AcDbDictionary
280
     1
281
     1
  3
ACAD_ROUNDTRIP_2008_TABLESTYLE_CELLSTYLEMAP
360
1500
  0
CELLSTYLEMAP
  5
1500
102
{ACAD_REACTORS
330
14FF
102
}
330
14FF
100
AcDbCellStyleMap
 90
        3
300
CELLSTYLE
  1
TABLEFORMAT_BEGIN
 90
        5
170
     1
 91
        0
 92
    32768
 62
   257
 93
        1
300
CONTENTFORMAT
  1
CONTENTFORMAT_BEGIN
 90
        0
 91
        0
 92
        4
 93
        0
300

 40
0.0
140
1.0
 94
        5
 62
     0
340
11
144
6.0
309
CONTENTFORMAT_END
171
     1
301
MARGIN
  1
CELLMARGIN_BEGIN
 40
1.5
 40
1.5
 40
1.5
 40
1.5
 40
1.5
 40
1.5
309
CELLMARGIN_END
 94
        6
 95
        1
302
GRIDFORMAT
  1
GRIDFORMAT_BEGIN
 90
        0
 91
        1
 62
     0
 92
       -2
340
14
 93
        0
 40
0.045
309
GRIDFORMAT_END
 95
        2
302
GRIDFORMAT
  1
GRIDFORMAT_BEGIN
 90
        0
 91
        1
 62
     0
 92
       -2
340
14
 93
        0
 40
0.045
309
GRIDFORMAT_END
 95
        4
302
GRIDFORMAT
  1
GRIDFORMAT_BEGIN
 90
        0
 91
        1
 62
     0
 92
       -2
340
14
 93
        0
 40
0.045
309
GRIDFORMAT_END
 95
        8
302
GRIDFORMAT
  1
GRIDFORMAT_BEGIN
 90
        0
 91
        1
 62
     0
 92
       -2
340
14
 93
        0
 40
0.045
309
GRIDFORMAT_END
 95
       16
302
GRIDFORMAT
  1
GRIDFORMAT_BEGIN
 90
        0
 91
        1
 62
     0
 92
       -2
340
14
 93
        0
 40
0.045
309
GRIDFORMAT_END
 95
       32
302
GRIDFORMAT
  1
GRIDFORMAT_BEGIN
 90
        0
 91
        1
 62
     0
 92
       -2
340
14
 93
        0
 40
0.045
309
GRIDFORMAT_END
309
TABLEFORMAT_END
  1
CELLSTYLE_BEGIN
 90
        1
 91
        1
300
_TITLE
309
CELLSTYLE_END
300
CELLSTYLE
  1
TABLEFORMAT_BEGIN
 90
        5
170
     1
 91
        0
 92
        0
 62
   257
 93
        1
300
CONTENTFORMAT
  1
CONTENTFORMAT_BEGIN
 90
        0
 91
        0
 92
        4
 93
        0
300

 40
0.0
140
1.0
 94
        5
 62
     0
340
11
144
4.5
309
CONTENTFORMAT_END
171
     1
301
MARGIN
  1
CELLMARGIN_BEGIN
 40
1.5
 40
1.5
 40
1.5
 40
1.5
 40
1.5
 40
1.5
309
CELLMARGIN_END
 94
        6
 95
        1
302
GRIDFORMAT
  1
GRIDFORMAT_BEGIN
 90
        0
 91
        1
 62
     0
 92
       -2
340
14
 93
        0
 40
0.045
309
GRIDFORMAT_END
 95
        2
302
GRIDFORMAT
  1
GRIDFORMAT_BEGIN
 90
        0
 91
        1
 62
     0
 92
       -2
340
14
 93
        0
 40
0.045
309
GRIDFORMAT_END
 95
        4
302
GRIDFORMAT
  1
GRIDFORMAT_BEGIN
 90
        0
 91
        1
 62
     0
 92
       -2
340
14
 93
        0
 40
0.045
309
GRIDFORMAT_END
 95
        8
302
GRIDFORMAT
  1
GRIDFORMAT_BEGIN
 90
        0
 91
        1
 62
     0
 92
       -2
340
14
 93
        0
 40
0.045
309
GRIDFORMAT_END
 95
       16
302
GRIDFORMAT
  1
GRIDFORMAT_BEGIN
 90
        0
 91
        1
 62
     0
 92
       -2
340
14
 93
        0
 40
0.045
309
GRIDFORMAT_END
 95
       32
302
GRIDFORMAT
  1
GRIDFORMAT_BEGIN
 90
        0
 91
        1
 62
     0
 92
       -2
340
14
 93
        0
 40
0.045
309
GRIDFORMAT_END
309
TABLEFORMAT_END
  1
CELLSTYLE_BEGIN
 90
        2
 91
        1
300
_HEADER
309
CELLSTYLE_END
300
CELLSTYLE
  1
TABLEFORMAT_BEGIN
 90
        5
170
     1
 91
        0
 92
        0
 62
   257
 93
        1
300
CONTENTFORMAT
  1
CONTENTFORMAT_BEGIN
 90
        0
 91
        0
 92
        4
 93
        0
300

 40
0.0
140
1.0
 94
        2
 62
     0
340
11
144
4.5
309
CONTENTFORMAT_END
171
     1
301
MARGIN
  1
CELLMARGIN_BEGIN
 40
1.5
 40
1.5
 40
1.5
 40
1.5
 40
1.5
 40
1.5
309
CELLMARGIN_END
 94
        6
 95
        1
302
GRIDFORMAT
  1
GRIDFORMAT_BEGIN
 90
        0
 91
        1
 62
     0
 92
       -2
340
14
 93
        0
 40
0.045
309
GRIDFORMAT_END
 95
        2
302
GRIDFORMAT
  1
GRIDFORMAT_BEGIN
 90
        0
 91
        1
 62
     0
 92
       -2
340
14
 93
        0
 40
0.045
309
GRIDFORMAT_END
 95
        4
302
GRIDFORMAT
  1
GRIDFORMAT_BEGIN
 90
        0
 91
        1
 62
     0
 92
       -2
340
14
 93
        0
 40
0.045
309
GRIDFORMAT_END
 95
        8
302
GRIDFORMAT
  1
GRIDFORMAT_BEGIN
 90
        0
 91
        1
 62
     0
 92
       -2
340
14
 93
        0
 40
0.045
309
GRIDFORMAT_END
 95
       16
302
GRIDFORMAT
  1
GRIDFORMAT_BEGIN
 90
        0
 91
        1
 62
     0
 92
       -2
340
14
 93
        0
 40
0.045
309
GRIDFORMAT_END
 95
       32
302
GRIDFORMAT
  1
GRIDFORMAT_BEGIN
 90
        0
 91
        1
 62
     0
 92
       -2
340
14
 93
        0
 40
0.045
309
GRIDFORMAT_END
309
TABLEFORMAT_END
  1
CELLSTYLE_BEGIN
 90
        3
 91
        2
300
_DATA
309
CELLSTYLE_END
  0
ENDSEC
  0
EOF
