  0
SECTION
  2
HEADER
  9
$ACADVER
  1
AC1021
  9
$ACADMAINTVER
 70
    25
  9
$DWGCODEPAGE
  3
ANSI_1252
  9
$LASTSAVEDBY
  1
markstone
  9
$INSBASE
 10
0.0
 20
0.0
 30
0.0
  9
$EXTMIN
 10
5.155688116800007
 20
5.202125665500006
 30
0.0
  9
$EXTMAX
 10
415.1556881168
 20
292.2021256655
 30
0.0
  9
$LIMMIN
 10
0.0
 20
0.0
  9
$LIMMAX
 10
420.0
 20
297.0
  9
$ORTHOMODE
 70
     0
  9
$REGENMODE
 70
     1
  9
$FILLMODE
 70
     1
  9
$QTEXTMODE
 70
     0
  9
$MIRRTEXT
 70
     1
  9
$LTSCALE
 40
1.0
  9
$ATTMODE
 70
     1
  9
$TEXTSIZE
 40
3.5
  9
$TRACEWID
 40
1.0
  9
$TEXTSTYLE
  7
Standard
  9
$CLAYER
  8
0
  9
$CELTYPE
  6
ByLayer
  9
$CECOLOR
 62
   256
  9
$CELTSCALE
 40
1.0
  9
$DISPSILH
 70
     0
  9
$DIMSCALE
 40
1.0
  9
$DIMASZ
 40
3.302
  9
$DIMEXO
 40
1.0
  9
$DIMDLI
 40
3.75
  9
$DIMRND
 40
0.0
  9
$DIMDLE
 40
0.0
  9
$DIMEXE
 40
1.0
  9
$DIMTP
 40
0.0
  9
$DIMTM
 40
0.0
  9
$DIMTXT
 40
3.5
  9
$DIMCEN
 40
2.5
  9
$DIMTSZ
 40
0.0
  9
$DIMTOL
 70
     0
  9
$DIMLIM
 70
     0
  9
$DIMTIH
 70
     1
  9
$DIMTOH
 70
     1
  9
$DIMSE1
 70
     0
  9
$DIMSE2
 70
     0
  9
$DIMTAD
 70
     1
  9
$DIMZIN
 70
     0
  9
$DIMBLK
  1

  9
$DIMASO
 70
     1
  9
$DIMSHO
 70
     1
  9
$DIMPOST
  1

  9
$DIMAPOST
  1

  9
$DIMALT
 70
     0
  9
$DIMALTD
 70
     3
  9
$DIMALTF
 40
0.0393700787
  9
$DIMLFAC
 40
1.0
  9
$DIMTOFL
 70
     1
  9
$DIMTVP
 40
0.0
  9
$DIMTIX
 70
     0
  9
$DIMSOXD
 70
     0
  9
$DIMSAH
 70
     0
  9
$DIMBLK1
  1

  9
$DIMBLK2
  1

  9
$DIMSTYLE
  2
ISO-25
  9
$DIMCLRD
 70
     0
  9
$DIMCLRE
 70
     0
  9
$DIMCLRT
 70
     0
  9
$DIMTFAC
 40
1.0
  9
$DIMGAP
 40
1.524
  9
$DIMJUST
 70
     0
  9
$DIMSD1
 70
     0
  9
$DIMSD2
 70
     0
  9
$DIMTOLJ
 70
     0
  9
$DIMTZIN
 70
     0
  9
$DIMALTZ
 70
     0
  9
$DIMALTTZ
 70
     0
  9
$DIMUPT
 70
     0
  9
$DIMDEC
 70
     3
  9
$DIMTDEC
 70
     3
  9
$DIMALTU
 70
     2
  9
$DIMALTTD
 70
     3
  9
$DIMTXSTY
  7
Standard
  9
$DIMAUNIT
 70
     0
  9
$DIMADEC
 70
     2
  9
$DIMALTRND
 40
0.0
  9
$DIMAZIN
 70
     0
  9
$DIMDSEP
 70
    44
  9
$DIMATFIT
 70
     3
  9
$DIMFRAC
 70
     0
  9
$DIMLDRBLK
  1

  9
$DIMLUNIT
 70
     2
  9
$DIMLWD
 70
    -2
  9
$DIMLWE
 70
    -2
  9
$DIMTMOVE
 70
     0
  9
$DIMFXL
 40
1.0
  9
$DIMFXLON
 70
     0
  9
$DIMJOGANG
 40
0.7853981633974483
  9
$DIMTFILL
 70
     0
  9
$DIMTFILLCLR
 70
     0
  9
$DIMARCSYM
 70
     0
  9
$DIMLTYPE
  6

  9
$DIMLTEX1
  6

  9
$DIMLTEX2
  6

  9
$LUNITS
 70
     2
  9
$LUPREC
 70
     2
  9
$SKETCHINC
 40
1.0
  9
$FILLETRAD
 40
0.5
  9
$AUNITS
 70
     0
  9
$AUPREC
 70
     2
  9
$MENU
  1
.
  9
$ELEVATION
 40
0.0
  9
$PELEVATION
 40
0.0
  9
$THICKNESS
 40
0.0
  9
$LIMCHECK
 70
     0
  9
$CHAMFERA
 40
10.0
  9
$CHAMFERB
 40
10.0
  9
$CHAMFERC
 40
20.0
  9
$CHAMFERD
 40
0.0
  9
$SKPOLY
 70
     0
  9
$TDCREATE
 40
2458444.456769526
  9
$TDUCREATE
 40
2458444.040102859
  9
$TDUPDATE
 40
2458444.660689109
  9
$TDUUPDATE
 40
2458444.244022442
  9
$TDINDWG
 40
0.0000002431
  9
$TDUSRTIMER
 40
0.0009320718
  9
$USRTIMER
 70
     1
  9
$ANGBASE
 50
0.0
  9
$ANGDIR
 70
     0
  9
$PDMODE
 70
     0
  9
$PDSIZE
 40
-1.0
  9
$PLINEWID
 40
0.0
  9
$SPLFRAME
 70
     0
  9
$SPLINETYPE
 70
     6
  9
$SPLINESEGS
 70
     8
  9
$HANDSEED
  5
4D7
  9
$SURFTAB1
 70
     6
  9
$SURFTAB2
 70
     6
  9
$SURFTYPE
 70
     6
  9
$SURFU
 70
     6
  9
$SURFV
 70
     6
  9
$UCSBASE
  2

  9
$UCSNAME
  2

  9
$UCSORG
 10
0.0
 20
0.0
 30
0.0
  9
$UCSXDIR
 10
1.0
 20
0.0
 30
0.0
  9
$UCSYDIR
 10
0.0
 20
1.0
 30
0.0
  9
$UCSORTHOREF
  2

  9
$UCSORTHOVIEW
 70
     0
  9
$UCSORGTOP
 10
0.0
 20
0.0
 30
0.0
  9
$UCSORGBOTTOM
 10
0.0
 20
0.0
 30
0.0
  9
$UCSORGLEFT
 10
0.0
 20
0.0
 30
0.0
  9
$UCSORGRIGHT
 10
0.0
 20
0.0
 30
0.0
  9
$UCSORGFRONT
 10
0.0
 20
0.0
 30
0.0
  9
$UCSORGBACK
 10
0.0
 20
0.0
 30
0.0
  9
$PUCSBASE
  2

  9
$PUCSNAME
  2

  9
$PUCSORG
 10
0.0
 20
0.0
 30
0.0
  9
$PUCSXDIR
 10
1.0
 20
0.0
 30
0.0
  9
$PUCSYDIR
 10
0.0
 20
1.0
 30
0.0
  9
$PUCSORTHOREF
  2

  9
$PUCSORTHOVIEW
 70
     0
  9
$PUCSORGTOP
 10
0.0
 20
0.0
 30
0.0
  9
$PUCSORGBOTTOM
 10
0.0
 20
0.0
 30
0.0
  9
$PUCSORGLEFT
 10
0.0
 20
0.0
 30
0.0
  9
$PUCSORGRIGHT
 10
0.0
 20
0.0
 30
0.0
  9
$PUCSORGFRONT
 10
0.0
 20
0.0
 30
0.0
  9
$PUCSORGBACK
 10
0.0
 20
0.0
 30
0.0
  9
$USERI1
 70
     0
  9
$USERI2
 70
     0
  9
$USERI3
 70
     0
  9
$USERI4
 70
     0
  9
$USERI5
 70
     0
  9
$USERR1
 40
0.0
  9
$USERR2
 40
0.0
  9
$USERR3
 40
0.0
  9
$USERR4
 40
0.0
  9
$USERR5
 40
0.0
  9
$WORLDVIEW
 70
     1
  9
$SHADEDGE
 70
     3
  9
$SHADEDIF
 70
    70
  9
$TILEMODE
 70
     1
  9
$MAXACTVP
 70
    64
  9
$PINSBASE
 10
0.0
 20
0.0
 30
0.0
  9
$PLIMCHECK
 70
     0
  9
$PEXTMIN
 10
1.000000000000000E+20
 20
1.000000000000000E+20
 30
1.000000000000000E+20
  9
$PEXTMAX
 10
-1.000000000000000E+20
 20
-1.000000000000000E+20
 30
-1.000000000000000E+20
  9
$PLIMMIN
 10
0.0
 20
0.0
  9
$PLIMMAX
 10
0.0
 20
0.0
  9
$UNITMODE
 70
     0
  9
$VISRETAIN
 70
     1
  9
$PLINEGEN
 70
     0
  9
$PSLTSCALE
 70
     1
  9
$TREEDEPTH
 70
  3020
  9
$CMLSTYLE
  2
Standard
  9
$CMLJUST
 70
     0
  9
$CMLSCALE
 40
20.0
  9
$PROXYGRAPHICS
 70
     1
  9
$MEASUREMENT
 70
     1
  9
$CELWEIGHT
370
    -1
  9
$ENDCAPS
280
     0
  9
$JOINSTYLE
280
     0
  9
$LWDISPLAY
290
     1
  9
$INSUNITS
 70
     4
  9
$HYPERLINKBASE
  1

  9
$STYLESHEET
  1

  9
$XEDIT
290
     1
  9
$CEPSNTYPE
380
     0
  9
$PSTYLEMODE
290
     1
  9
$FINGERPRINTGUID
  2
{F36FD48F-B347-43ED-BE93-760E8087069D}
  9
$VERSIONGUID
  2
{FAEB1C32-E019-11D5-929B-00C0DF256EC4}
  9
$EXTNAMES
290
     1
  9
$PSVPSCALE
 40
0.0
  9
$OLESTARTUP
290
     0
  9
$SORTENTS
280
   127
  9
$INDEXCTL
280
     0
  9
$HIDETEXT
280
     1
  9
$XCLIPFRAME
290
     0
  9
$HALOGAP
280
     0
  9
$OBSCOLOR
 70
   257
  9
$OBSLTYPE
280
     0
  9
$INTERSECTIONDISPLAY
280
     0
  9
$INTERSECTIONCOLOR
 70
   257
  9
$DIMASSOC
280
     2
  9
$PROJECTNAME
  1

  9
$CAMERADISPLAY
290
     0
  9
$LENSLENGTH
 40
50.0
  9
$CAMERAHEIGHT
 40
0.0
  9
$STEPSPERSEC
 40
2.0
  9
$STEPSIZE
 40
6.0
  9
$3DDWFPREC
 40
2.0
  9
$PSOLWIDTH
 40
5.0
  9
$PSOLHEIGHT
 40
80.0
  9
$LOFTANG1
 40
1.570796326794897
  9
$LOFTANG2
 40
1.570796326794897
  9
$LOFTMAG1
 40
0.0
  9
$LOFTMAG2
 40
0.0
  9
$LOFTPARAM
 70
     7
  9
$LOFTNORMALS
280
     1
  9
$LATITUDE
 40
37.795
  9
$LONGITUDE
 40
-122.394
  9
$NORTHDIRECTION
 40
0.0
  9
$TIMEZONE
 70
 -8000
  9
$LIGHTGLYPHDISPLAY
280
     1
  9
$TILEMODELIGHTSYNCH
280
     1
  9
$SOLIDHIST
280
     0
  9
$SHOWHIST
280
     1
  9
$DWFFRAME
280
     2
  9
$DGNFRAME
280
     2
  9
$REALWORLDSCALE
290
     1
  9
$INTERFERECOLOR
 62
   256
  9
$CSHADOW
280
     0
  9
$SHADOWPLANELOCATION
 40
0.0
  0
ENDSEC
  0
SECTION
  2
CLASSES
  0
CLASS
  1
ACDBDICTIONARYWDFLT
  2
AcDbDictionaryWithDefault
  3
ObjectDBX Classes
 90
        0
 91
        4
280
     0
281
     0
  0
CLASS
  1
VISUALSTYLE
  2
AcDbVisualStyle
  3
ObjectDBX Classes
 90
     4095
 91
        4
280
     0
281
     0
  0
CLASS
  1
SCALE
  2
AcDbScale
  3
ObjectDBX Classes
 90
     1153
 91
        4
280
     0
281
     0
  0
CLASS
  1
DICTIONARYVAR
  2
AcDbDictionaryVar
  3
ObjectDBX Classes
 90
        0
 91
        4
280
     0
281
     0
  0
CLASS
  1
ACDBPLACEHOLDER
  2
AcDbPlaceHolder
  3
ObjectDBX Classes
 90
        0
 91
        1
280
     0
281
     0
  0
CLASS
  1
LAYOUT
  2
AcDbLayout
  3
ObjectDBX Classes
 90
        0
 91
        1
280
     0
281
     0
  0
CLASS
  1
MATERIAL
  2
AcDbMaterial
  3
ObjectDBX Classes
 90
     1153
 91
        4
280
     0
281
     0
  0
CLASS
  1
TABLESTYLE
  2
AcDbTableStyle
  3
ObjectDBX Classes
 90
     4095
 91
        4
280
     0
281
     0
  0
CLASS
  1
MLEADERSTYLE
  2
AcDbMLeaderStyle
  3
ACDB_MLEADERSTYLE_CLASS
 90
     4095
 91
        4
280
     0
281
     0
  0
CLASS
  1
CELLSTYLEMAP
  2
AcDbCellStyleMap
  3
ObjectDBX Classes
 90
     1152
 91
        4
280
     0
281
     0
  0
CLASS
  1
SUN
  2
AcDbSun
  3
SCENEOE
 90
     1153
 91
        4
280
     0
281
     0
  0
CLASS
  1
DIMASSOC
  2
AcDbDimAssoc
  3
"AcDbDimAssoc|Product Desc:     AcDim ARX App For Dimension|Company:          Autodesk, Inc.|WEB Address:      www.autodesk.com"
 90
        0
 91
        4
280
     0
281
     0
  0
ENDSEC
  0
SECTION
  2
TABLES
  0
TABLE
  2
VPORT
  5
8
330
0
100
AcDbSymbolTable
 70
     1
  0
VPORT
  5
29
330
8
100
AcDbSymbolTableRecord
100
AcDbViewportTableRecord
  2
*Active
 70
     0
 10
0.0
 20
0.0
 11
1.0
 21
1.0
 12
240.2418603535162
 22
151.8172368422901
 13
0.0
 23
0.0
 14
10.0
 24
10.0
 15
10.0
 25
10.0
 16
0.0
 26
0.0
 36
1.0
 17
0.0
 27
0.0
 37
0.0
 40
240.9102167182658
 41
1.981424148606811
 42
50.0
 43
0.0
 44
0.0
 50
0.0
 51
0.0
 71
    16
 72
  2000
 73
     1
 74
     3
 75
     0
 76
     0
 77
     0
 78
     0
281
     0
 65
     1
110
0.0
120
0.0
130
0.0
111
1.0
121
0.0
131
0.0
112
0.0
122
1.0
132
0.0
 79
     0
146
0.0
348
2F
 60
     3
 61
     5
292
     1
282
     1
141
0.0
142
0.0
 63
   250
361
38C
  0
ENDTAB
  0
TABLE
  2
LTYPE
  5
5
330
0
100
AcDbSymbolTable
 70
     6
  0
LTYPE
  5
14
330
5
100
AcDbSymbolTableRecord
100
AcDbLinetypeTableRecord
  2
ByBlock
 70
     0
  3

 72
    65
 73
     0
 40
0.0
  0
LTYPE
  5
15
330
5
100
AcDbSymbolTableRecord
100
AcDbLinetypeTableRecord
  2
ByLayer
 70
     0
  3

 72
    65
 73
     0
 40
0.0
  0
LTYPE
  5
16
330
5
100
AcDbSymbolTableRecord
100
AcDbLinetypeTableRecord
  2
Continuous
 70
     0
  3
Solid line
 72
    65
 73
     0
 40
0.0
  0
LTYPE
  5
3B
330
5
100
AcDbSymbolTableRecord
100
AcDbLinetypeTableRecord
  2
HIDDEN
 70
     0
  3
Hidden __ __ __ __ __ __ __ __ __ __ __ __ __ __
 72
    65
 73
     2
 40
1.905
 49
1.27
 74
     0
 49
-0.635
 74
     0
  0
LTYPE
  5
3C
330
5
100
AcDbSymbolTableRecord
100
AcDbLinetypeTableRecord
  2
PHANTOM
 70
     0
  3
Phantom ______  __  __  ______  __  __  ______
 72
    65
 73
     6
 40
12.7
 49
6.35
 74
     0
 49
-1.27
 74
     0
 49
1.27
 74
     0
 49
-1.27
 74
     0
 49
1.27
 74
     0
 49
-1.27
 74
     0
  0
LTYPE
  5
3D
330
5
100
AcDbSymbolTableRecord
100
AcDbLinetypeTableRecord
  2
CENTER
 70
     0
  3
Center ____ _ ____ _ ____ _ ____ _ ____ _ ____
 72
    65
 73
     4
 40
10.16
 49
6.35
 74
     0
 49
-1.27
 74
     0
 49
1.27
 74
     0
 49
-1.27
 74
     0
  0
LTYPE
  5
3E
330
5
100
AcDbSymbolTableRecord
100
AcDbLinetypeTableRecord
  2
CENTERX2
 70
     0
  3
Center (2x) ________  __  ________  __  _____
 72
    65
 73
     4
 40
20.32
 49
12.7
 74
     0
 49
-2.54
 74
     0
 49
2.54
 74
     0
 49
-2.54
 74
     0
  0
LTYPE
  5
3F
330
5
100
AcDbSymbolTableRecord
100
AcDbLinetypeTableRecord
  2
DOT2
 70
     0
  3
Dot (.5x) ........................................
 72
    65
 73
     2
 40
0.635
 49
0.0
 74
     0
 49
-0.635
 74
     0
  0
ENDTAB
  0
TABLE
  2
LAYER
  5
2
330
0
100
AcDbSymbolTable
 70
     4
  0
LAYER
  5
10
330
2
100
AcDbSymbolTableRecord
100
AcDbLayerTableRecord
  2
0
 70
     0
 62
     7
  6
Continuous
370
    -3
390
F
347
36E
  0
LAYER
  5
40
330
2
100
AcDbSymbolTableRecord
100
AcDbLayerTableRecord
  2
SLD-0
 70
     0
 62
   161
  6
Continuous
370
    -3
390
F
347
36E
  0
LAYER
  5
41
330
2
100
AcDbSymbolTableRecord
100
AcDbLayerTableRecord
  2
TITLE_BLOCK
 70
     0
 62
     7
  6
Continuous
370
    -3
390
F
347
36E
  0
LAYER
  5
37D
330
2
100
AcDbSymbolTableRecord
100
AcDbLayerTableRecord
  2
Defpoints
 70
     0
 62
     7
  6
Continuous
290
     0
370
    -3
390
F
347
36E
  0
ENDTAB
  0
TABLE
  2
STYLE
  5
3
330
0
100
AcDbSymbolTable
 70
     6
  0
STYLE
  5
11
330
3
100
AcDbSymbolTableRecord
100
AcDbTextStyleTableRecord
  2
Standard
 70
     0
 40
0.0
 41
1.0
 50
0.0
 71
     0
 42
3.5
  3
txt
  4

  0
STYLE
  5
BD
330
3
100
AcDbSymbolTableRecord
100
AcDbTextStyleTableRecord
  2
SLDTEXTSTYLE0
 70
     0
 40
0.0
 41
0.6875
 50
0.0
 71
     0
 42
0.2
  3
TXT
  4

  0
STYLE
  5
E1
330
3
100
AcDbSymbolTableRecord
100
AcDbTextStyleTableRecord
  2
SLDTEXTSTYLE1
 70
     0
 40
0.0
 41
0.75
 50
0.0
 71
     0
 42
0.2
  3
TXT
  4

  0
STYLE
  5
E9
330
3
100
AcDbSymbolTableRecord
100
AcDbTextStyleTableRecord
  2
SLDTEXTSTYLE2
 70
     0
 40
0.0
 41
0.6
 50
0.0
 71
     0
 42
0.2
  3
TXT
  4

  0
STYLE
  5
EC
330
3
100
AcDbSymbolTableRecord
100
AcDbTextStyleTableRecord
  2
SLDTEXTSTYLE3
 70
     0
 40
0.0
 41
0.484
 50
0.0
 71
     0
 42
0.2
  3
TXT
  4

  0
STYLE
  5
13E
330
3
100
AcDbSymbolTableRecord
100
AcDbTextStyleTableRecord
  2
SLDTEXTSTYLE4
 70
     0
 40
0.0
 41
0.605
 50
0.0
 71
     0
 42
0.2
  3
TXT
  4

  0
ENDTAB
  0
TABLE
  2
VIEW
  5
6
330
0
100
AcDbSymbolTable
 70
     0
  0
ENDTAB
  0
TABLE
  2
UCS
  5
7
330
0
100
AcDbSymbolTable
 70
     0
  0
ENDTAB
  0
TABLE
  2
APPID
  5
9
330
0
100
AcDbSymbolTable
 70
     3
  0
APPID
  5
12
330
9
100
AcDbSymbolTableRecord
100
AcDbRegAppTableRecord
  2
ACAD
 70
     0
  0
APPID
  5
388
330
9
100
AcDbSymbolTableRecord
100
AcDbRegAppTableRecord
  2
ACAD_MLEADERVER
 70
     0
  0
APPID
  5
42D
330
9
100
AcDbSymbolTableRecord
100
AcDbRegAppTableRecord
  2
PE_URL
 70
     0
  0
ENDTAB
  0
TABLE
  2
DIMSTYLE
  5
A
330
0
100
AcDbSymbolTable
 70
     5
100
AcDbDimStyleTable
  0
DIMSTYLE
105
27
102
{ACAD_REACTORS
330
39A
330
3AA
330
3BA
330
3CD
330
3DF
330
3EF
330
438
330
485
102
}
330
A
100
AcDbSymbolTableRecord
100
AcDbDimStyleTableRecord
  2
ISO-25
 70
     0
 41
2.5
 42
0.625
 43
3.75
 44
1.25
 73
     0
 74
     0
 77
     1
 78
     8
140
2.5
141
2.5
143
0.0393700787
147
0.625
171
     3
172
     1
178
     0
271
     2
272
     2
274
     3
278
    44
283
     0
284
     8
340
11
  0
DIMSTYLE
105
2C6
330
A
100
AcDbSymbolTableRecord
100
AcDbDimStyleTableRecord
  2
SLDDIMSTYLE0
 70
     0
 41
3.302
 44
0.0
 45
0.000000001
 73
     0
 74
     0
 77
     2
 78
    12
140
3.5
147
0.875
173
     1
178
     0
271
     2
272
     2
284
    12
340
E1
  0
DIMSTYLE
105
2D1
330
A
100
AcDbSymbolTableRecord
100
AcDbDimStyleTableRecord
  2
SLDDIMSTYLE1
 70
     0
 41
3.302
 44
0.0
 45
0.000000001
 73
     0
 74
     0
 77
     2
 78
    12
140
3.5
147
0.875
173
     1
178
     0
271
     2
272
     2
284
    12
340
E1
  0
DIMSTYLE
105
320
330
A
100
AcDbSymbolTableRecord
100
AcDbDimStyleTableRecord
  2
SLDDIMSTYLE2
 70
     0
 41
3.302
 44
0.0
 45
0.000000001
 78
     4
140
3.5
147
0.875
173
     1
178
     0
271
     2
272
     2
284
    12
340
E1
  0
DIMSTYLE
105
32B
330
A
100
AcDbSymbolTableRecord
100
AcDbDimStyleTableRecord
  2
SLDDIMSTYLE3
 70
     0
 41
3.302
 44
0.0
 45
0.000000001
 78
     4
140
3.5
147
0.875
173
     1
178
     0
271
     2
272
     2
279
     1
284
    12
340
E1
  0
ENDTAB
  0
TABLE
  2
BLOCK_RECORD
  5
1
330
0
100
AcDbSymbolTable
 70
    34
  0
BLOCK_RECORD
  5
1F
330
1
100
AcDbSymbolTableRecord
100
AcDbBlockTableRecord
  2
*Model_Space
340
22
 70
     0
280
     1
281
     0
  0
BLOCK_RECORD
  5
1B
330
1
100
AcDbSymbolTableRecord
100
AcDbBlockTableRecord
  2
*Paper_Space
340
1E
 70
     0
280
     1
281
     0
  0
BLOCK_RECORD
  5
23
330
1
100
AcDbSymbolTableRecord
100
AcDbBlockTableRecord
  2
*Paper_Space0
340
26
 70
     0
280
     1
281
     0
  0
BLOCK_RECORD
  5
E6
330
1
100
AcDbSymbolTableRecord
100
AcDbBlockTableRecord
  2
SW_NOTE_0
340
0
102
{BLKREFS
331
F2
102
}
 70
     0
280
     1
281
     0
  0
BLOCK_RECORD
  5
F6
330
1
100
AcDbSymbolTableRecord
100
AcDbBlockTableRecord
  2
SW_NOTE_1
340
0
102
{BLKREFS
331
FC
102
}
 70
     0
280
     1
281
     0
  0
BLOCK_RECORD
  5
FD
330
1
100
AcDbSymbolTableRecord
100
AcDbBlockTableRecord
  2
SW_NOTE_2
340
0
102
{BLKREFS
331
10A
102
}
 70
     0
280
     1
281
     0
  0
BLOCK_RECORD
  5
10E
330
1
100
AcDbSymbolTableRecord
100
AcDbBlockTableRecord
  2
SW_NOTE_3
340
0
 70
     0
280
     1
281
     0
  0
BLOCK_RECORD
  5
11E
330
1
100
AcDbSymbolTableRecord
100
AcDbBlockTableRecord
  2
SW_NOTE_4
340
0
102
{BLKREFS
331
12B
102
}
 70
     0
280
     1
281
     0
  0
BLOCK_RECORD
  5
12D
330
1
100
AcDbSymbolTableRecord
100
AcDbBlockTableRecord
  2
SW_NOTE_5
340
0
102
{BLKREFS
331
13A
102
}
 70
     0
280
     1
281
     0
  0
BLOCK_RECORD
  5
140
330
1
100
AcDbSymbolTableRecord
100
AcDbBlockTableRecord
  2
SW_TABLEANNOTATION_0
340
0
102
{BLKREFS
331
154
102
}
 70
     0
280
     1
281
     0
  0
BLOCK_RECORD
  5
2C7
330
1
100
AcDbSymbolTableRecord
100
AcDbBlockTableRecord
  2
*D8
340
0
 70
     0
280
     1
281
     0
  0
BLOCK_RECORD
  5
2D2
330
1
100
AcDbSymbolTableRecord
100
AcDbBlockTableRecord
  2
*D9
340
0
 70
     0
280
     1
281
     0
  0
BLOCK_RECORD
  5
2DE
330
1
100
AcDbSymbolTableRecord
100
AcDbBlockTableRecord
  2
*D10
340
0
 70
     0
280
     1
281
     0
  0
BLOCK_RECORD
  5
2EA
330
1
100
AcDbSymbolTableRecord
100
AcDbBlockTableRecord
  2
*D11
340
0
 70
     0
280
     1
281
     0
  0
BLOCK_RECORD
  5
2F4
330
1
100
AcDbSymbolTableRecord
100
AcDbBlockTableRecord
  2
*D12
340
0
 70
     0
280
     1
281
     0
  0
BLOCK_RECORD
  5
300
330
1
100
AcDbSymbolTableRecord
100
AcDbBlockTableRecord
  2
*D13
340
0
 70
     0
280
     1
281
     0
  0
BLOCK_RECORD
  5
30A
330
1
100
AcDbSymbolTableRecord
100
AcDbBlockTableRecord
  2
*D14
340
0
 70
     0
280
     1
281
     0
  0
BLOCK_RECORD
  5
316
330
1
100
AcDbSymbolTableRecord
100
AcDbBlockTableRecord
  2
*D15
340
0
 70
     0
280
     1
281
     0
  0
BLOCK_RECORD
  5
321
330
1
100
AcDbSymbolTableRecord
100
AcDbBlockTableRecord
  2
*D16
340
0
 70
     0
280
     1
281
     0
  0
BLOCK_RECORD
  5
32C
330
1
100
AcDbSymbolTableRecord
100
AcDbBlockTableRecord
  2
*D17
340
0
 70
     0
280
     1
281
     0
  0
BLOCK_RECORD
  5
336
330
1
100
AcDbSymbolTableRecord
100
AcDbBlockTableRecord
  2
*D18
340
0
 70
     0
280
     1
281
     0
  0
BLOCK_RECORD
  5
33F
330
1
100
AcDbSymbolTableRecord
100
AcDbBlockTableRecord
  2
SW_CENTERMARKSYMBOL_0
340
0
102
{BLKREFS
331
34A
102
}
 70
     0
280
     1
281
     0
  0
BLOCK_RECORD
  5
34B
330
1
100
AcDbSymbolTableRecord
100
AcDbBlockTableRecord
  2
SW_CENTERMARKSYMBOL_1
340
0
102
{BLKREFS
331
356
102
}
 70
     0
280
     1
281
     0
  0
BLOCK_RECORD
  5
357
330
1
100
AcDbSymbolTableRecord
100
AcDbBlockTableRecord
  2
SW_CENTERMARKSYMBOL_2
340
0
 70
     0
280
     1
281
     0
  0
BLOCK_RECORD
  5
39D
330
1
100
AcDbSymbolTableRecord
100
AcDbBlockTableRecord
  2
*D22
340
0
 70
     0
280
     1
281
     0
  0
BLOCK_RECORD
  5
3AD
330
1
100
AcDbSymbolTableRecord
100
AcDbBlockTableRecord
  2
*D23
340
0
 70
     0
280
     1
281
     0
  0
BLOCK_RECORD
  5
3BD
330
1
100
AcDbSymbolTableRecord
100
AcDbBlockTableRecord
  2
*D24
340
0
 70
     0
280
     1
281
     0
  0
BLOCK_RECORD
  5
3D0
330
1
100
AcDbSymbolTableRecord
100
AcDbBlockTableRecord
  2
*D25
340
0
 70
     0
280
     1
281
     0
  0
BLOCK_RECORD
  5
3E2
330
1
100
AcDbSymbolTableRecord
100
AcDbBlockTableRecord
  2
*D26
340
0
 70
     0
280
     1
281
     0
  0
BLOCK_RECORD
  5
3F2
330
1
100
AcDbSymbolTableRecord
100
AcDbBlockTableRecord
  2
*D27
340
0
 70
     0
280
     1
281
     0
  0
BLOCK_RECORD
  5
403
330
1
100
AcDbSymbolTableRecord
100
AcDbBlockTableRecord
  2
*D28
340
0
 70
     0
280
     1
281
     0
  0
BLOCK_RECORD
  5
413
330
1
100
AcDbSymbolTableRecord
100
AcDbBlockTableRecord
  2
*D29
340
0
 70
     0
280
     1
281
     0
  0
BLOCK_RECORD
  5
43B
330
1
100
AcDbSymbolTableRecord
100
AcDbBlockTableRecord
  2
*D30
340
0
 70
     0
280
     1
281
     0
  0
BLOCK_RECORD
  5
44E
330
1
100
AcDbSymbolTableRecord
100
AcDbBlockTableRecord
  2
*D31
340
0
 70
     0
280
     1
281
     0
  0
BLOCK_RECORD
  5
461
330
1
100
AcDbSymbolTableRecord
100
AcDbBlockTableRecord
  2
*D32
340
0
 70
     0
280
     1
281
     0
  0
BLOCK_RECORD
  5
488
330
1
100
AcDbSymbolTableRecord
100
AcDbBlockTableRecord
  2
*D33
340
0
 70
     0
280
     1
281
     0
  0
ENDTAB
  0
ENDSEC
  0
SECTION
  2
BLOCKS
  0
BLOCK
  5
20
330
1F
100
AcDbEntity
  8
0
100
AcDbBlockBegin
  2
*Model_Space
 70
     0
 10
0.0
 20
0.0
 30
0.0
  3
*Model_Space
  1

  0
ENDBLK
  5
21
330
1F
100
AcDbEntity
  8
0
100
AcDbBlockEnd
  0
BLOCK
  5
1C
330
1B
100
AcDbEntity
 67
     1
  8
0
100
AcDbBlockBegin
  2
*Paper_Space
 70
     0
 10
0.0
 20
0.0
 30
0.0
  3
*Paper_Space
  1

  0
ENDBLK
  5
1D
330
1B
100
AcDbEntity
 67
     1
  8
0
100
AcDbBlockEnd
  0
BLOCK
  5
24
330
23
100
AcDbEntity
  8
0
100
AcDbBlockBegin
  2
*Paper_Space0
 70
     0
 10
0.0
 20
0.0
 30
0.0
  3
*Paper_Space0
  1

  0
ENDBLK
  5
25
330
23
100
AcDbEntity
  8
0
100
AcDbBlockEnd
  0
BLOCK
  5
E7
330
E6
100
AcDbEntity
  8
0
100
AcDbBlockBegin
  2
SW_NOTE_0
 70
     0
 10
0.0
 20
0.0
 30
0.0
  3
SW_NOTE_0
  1

  0
MTEXT
  5
EA
330
E6
100
AcDbEntity
  8
TITLE_BLOCK
 62
     0
100
AcDbMText
 10
0.0
 20
2.7285267159
 30
0.0
 40
2.1166666667
 41
0.0
 46
0.0
 71
     1
 72
     1
  1
These designs, drawings and specifications and the copyright therein are the 
  7
SLDTEXTSTYLE2
 73
     1
 44
1.0
  0
MTEXT
  5
EB
330
E6
100
AcDbEntity
  8
TITLE_BLOCK
 62
     0
100
AcDbMText
 10
0.0
 20
-0.0936954723
 30
0.0
 40
2.1166666667
 41
0.0
 46
0.0
 71
     1
 72
     1
  1
property of JOINLOX
  7
SLDTEXTSTYLE2
 73
     1
 44
1.0
  0
MTEXT
  5
ED
330
E6
100
AcDbEntity
  8
TITLE_BLOCK
 62
     0
100
AcDbMText
 10
21.1862660944
 20
-0.6023780424
 30
0.0
 40
1.5875
 41
0.0
 46
0.0
 71
     1
 72
     1
  1
®
  7
SLDTEXTSTYLE3
 73
     1
 44
1.0
  0
MTEXT
  5
EE
330
E6
100
AcDbEntity
  8
TITLE_BLOCK
 62
     0
100
AcDbMText
 10
22.4339235574
 20
-0.0936954723
 30
0.0
 40
2.1166666667
 41
0.0
 46
0.0
 71
     1
 72
     1
  1
 and must not be divulged to any other party, reproduced 
  7
SLDTEXTSTYLE2
 73
     1
 44
1.0
  0
MTEXT
  5
EF
330
E6
100
AcDbEntity
  8
TITLE_BLOCK
 62
     0
100
AcDbMText
 10
0.0
 20
-2.9159176604
 30
0.0
 40
2.1166666667
 41
0.0
 46
0.0
 71
     1
 72
     1
  1
or copied wholly or in part without the written permission of JOINLOX
  7
SLDTEXTSTYLE2
 73
     1
 44
1.0
  0
MTEXT
  5
F0
330
E6
100
AcDbEntity
  8
TITLE_BLOCK
 62
     0
100
AcDbMText
 10
70.544578135
 20
-3.4246002305
 30
0.0
 40
1.5875
 41
0.0
 46
0.0
 71
     1
 72
     1
  1
®
  7
SLDTEXTSTYLE3
 73
     1
 44
1.0
  0
MTEXT
  5
F1
330
E6
100
AcDbEntity
  8
TITLE_BLOCK
 62
     0
100
AcDbMText
 10
71.7922374606
 20
-2.9159176604
 30
0.0
 40
2.1166666667
 41
0.0
 46
0.0
 71
     1
 72
     1
  1
.
  7
SLDTEXTSTYLE2
 73
     1
 44
1.0
  0
ENDBLK
  5
E8
330
E6
100
AcDbEntity
  8
0
100
AcDbBlockEnd
  0
BLOCK
  5
F7
330
F6
100
AcDbEntity
  8
0
100
AcDbBlockBegin
  2
SW_NOTE_1
 70
     0
 10
0.0
 20
0.0
 30
0.0
  3
SW_NOTE_1
  1

  0
MTEXT
  5
F9
330
F6
100
AcDbEntity
  8
TITLE_BLOCK
 62
     0
100
AcDbMText
 10
0.0
 20
2.3874608764
 30
0.0
 40
1.8520833333
 41
0.0
 46
0.0
 71
     1
 72
     1
  1
2/30 Walker St, Tennyson QLD 4105
  7
SLDTEXTSTYLE2
 73
     1
 44
1.0
  0
MTEXT
  5
FA
330
F6
100
AcDbEntity
  8
TITLE_BLOCK
 62
     0
100
AcDbMText
 10
3.9204405621
 20
-0.0819835382
 30
0.0
 40
1.8520833333
 41
0.0
 46
0.0
 71
     1
 72
     1
  1
TELEPHONE: 07 3892 4458
  7
SLDTEXTSTYLE2
 73
     1
 44
1.0
  0
MTEXT
  5
FB
330
F6
100
AcDbEntity
  8
TITLE_BLOCK
 62
     0
100
AcDbMText
 10
4.3144728988
 20
-2.5865637549
 30
0.0
 40
2.6458333333
 41
0.0
 46
0.0
 71
     1
 72
     1
  1
www.joinlox.com
  7
SLDTEXTSTYLE2
 73
     1
 44
1.0
  0
ENDBLK
  5
F8
330
F6
100
AcDbEntity
  8
0
100
AcDbBlockEnd
  0
BLOCK
  5
FE
330
FD
100
AcDbEntity
  8
0
100
AcDbBlockBegin
  2
SW_NOTE_2
 70
     0
 10
0.0
 20
0.0
 30
0.0
  3
SW_NOTE_2
  1

  0
LINE
  5
100
330
FD
100
AcDbEntity
  8
TITLE_BLOCK
 62
     0
100
AcDbLine
 10
31.7081230714
 20
-10.6440112577
 30
0.0
 11
30.3703368214
 21
-8.3762675077
 31
0.0
  0
LINE
  5
101
330
FD
100
AcDbEntity
  8
TITLE_BLOCK
 62
     0
100
AcDbLine
 10
33.0459093214
 20
-8.3762675077
 30
0.0
 11
30.3703368214
 21
-8.3762675077
 31
0.0
  0
LINE
  5
102
330
FD
100
AcDbEntity
  8
TITLE_BLOCK
 62
     0
100
AcDbLine
 10
31.7081230714
 20
-10.6440112577
 30
0.0
 11
34.3836955714
 21
-6.1085237577
 31
0.0
  0
MTEXT
  5
103
330
FD
100
AcDbEntity
  8
TITLE_BLOCK
 62
     0
100
AcDbMText
 10
0.0
 20
2.7285267159
 30
0.0
 40
2.1166666667
 41
0.0
 46
0.0
 71
     1
 72
     1
  1
\LUNLESS OTHERWISE STATED
  7
SLDTEXTSTYLE1
 73
     1
 44
1.0
  0
MTEXT
  5
104
330
FD
100
AcDbEntity
  8
TITLE_BLOCK
 62
     0
100
AcDbMText
 10
0.0
 20
-0.0936954723
 30
0.0
 40
2.1166666667
 41
0.0
 46
0.0
 71
     1
 72
     1
  1
ALL DIMENSIONS IN MILLIMETRES
  7
SLDTEXTSTYLE1
 73
     1
 44
1.0
  0
MTEXT
  5
105
330
FD
100
AcDbEntity
  8
TITLE_BLOCK
 62
     0
100
AcDbMText
 10
0.0
 20
-2.9159176604
 30
0.0
 40
2.1166666667
 41
0.0
 46
0.0
 71
     1
 72
     1
  1
REMOVE ALL BURRS AND SHARP EDGES
  7
SLDTEXTSTYLE1
 73
     1
 44
1.0
  0
MTEXT
  5
106
330
FD
100
AcDbEntity
  8
TITLE_BLOCK
 62
     0
100
AcDbMText
 10
0.0
 20
-8.5387253177
 30
0.0
 40
2.1166666667
 41
0.0
 46
0.0
 71
     1
 72
     1
  1
SURFACE ROUGHNESS 
  7
SLDTEXTSTYLE1
 73
     1
 44
1.0
  0
MTEXT
  5
107
330
FD
100
AcDbEntity
  8
TITLE_BLOCK
 62
     0
100
AcDbMText
 10
30.1208527319
 20
-6.32987255
 30
0.0
 40
1.5875
 41
0.0
 46
0.0
 71
     1
 72
     1
  1
3.2
  7
SLDTEXTSTYLE1
 73
     1
 44
1.0
  0
MTEXT
  5
108
330
FD
100
AcDbEntity
  8
TITLE_BLOCK
 62
     0
100
AcDbMText
 10
34.5953628421
 20
-8.5387253177
 30
0.0
 40
2.1166666667
 41
0.0
 46
0.0
 71
     1
 72
     1
  1
UNLESS STATED
  7
SLDTEXTSTYLE1
 73
     1
 44
1.0
  0
MTEXT
  5
109
330
FD
100
AcDbEntity
  8
TITLE_BLOCK
 62
     0
100
AcDbMText
 10
0.0
 20
-14.1831699268
 30
0.0
 40
2.1166666667
 41
0.0
 46
0.0
 71
     1
 72
     1
  1
GENERAL TOLERANCES:
  7
SLDTEXTSTYLE1
 73
     1
 44
1.0
  0
ENDBLK
  5
FF
330
FD
100
AcDbEntity
  8
0
100
AcDbBlockEnd
  0
BLOCK
  5
10F
330
10E
100
AcDbEntity
  8
0
100
AcDbBlockBegin
  2
SW_NOTE_3
 70
     0
 10
0.0
 20
0.0
 30
0.0
  3
SW_NOTE_3
  1

  0
MTEXT
  5
111
330
10E
100
AcDbEntity
  8
TITLE_BLOCK
 62
     0
100
AcDbMText
 10
0.0
 20
5.4570534317
 30
0.0
 40
4.2333333333
 41
0.0
 46
0.0
 71
     1
 72
     1
  1
If in 
  7
SLDTEXTSTYLE1
 73
     1
 44
1.0
  0
MTEXT
  5
112
330
10E
100
AcDbEntity
  8
TITLE_BLOCK
 62
     0
100
AcDbMText
 10
10.7401236892
 20
5.4570534317
 30
0.0
 40
4.2333333333
 41
0.0
 46
0.0
 71
     1
 72
     1
  1
DOUBT
  7
SLDTEXTSTYLE1
 73
     1
 44
1.0
  0
MTEXT
  5
113
330
10E
100
AcDbEntity
  8
TITLE_BLOCK
 62
     0
100
AcDbMText
 10
28.692593798
 20
5.4570534317
 30
0.0
 40
4.2333333333
 41
0.0
 46
0.0
 71
     1
 72
     1
  1
 ASK.
  7
SLDTEXTSTYLE1
 73
     1
 44
1.0
  0
MTEXT
  5
114
330
10E
100
AcDbEntity
  8
TITLE_BLOCK
 62
     0
100
AcDbMText
 10
-17.2155573964
 20
-0.1873909445
 30
0.0
 40
4.2333333333
 41
0.0
 46
0.0
 71
     1
 72
     1
  1
Not for manufacturer.
  7
SLDTEXTSTYLE1
 73
     1
 44
1.0
  0
ENDBLK
  5
110
330
10E
100
AcDbEntity
  8
0
100
AcDbBlockEnd
  0
BLOCK
  5
11F
330
11E
100
AcDbEntity
  8
0
100
AcDbBlockBegin
  2
SW_NOTE_4
 70
     0
 10
0.0
 20
0.0
 30
0.0
  3
SW_NOTE_4
  1

  0
MTEXT
  5
121
330
11E
100
AcDbEntity
  8
TITLE_BLOCK
 62
     0
100
AcDbMText
 10
0.0
 20
2.7285267159
 30
0.0
 40
2.1166666667
 41
0.0
 46
0.0
 71
     1
 72
     1
  1
ANGULAR:
  7
SLDTEXTSTYLE1
 73
     1
 44
1.0
  0
MTEXT
  5
122
330
11E
100
AcDbEntity
  8
TITLE_BLOCK
 62
     0
100
AcDbMText
 10
0.0
 20
-0.0936957051
 30
0.0
 40
2.1166666667
 41
0.0
 46
0.0
 71
     1
 72
     1
  1
0 = 
  7
SLDTEXTSTYLE0
 73
     1
 44
1.0
  0
MTEXT
  5
123
330
11E
100
AcDbEntity
  8
TITLE_BLOCK
 62
     0
100
AcDbMText
 10
4.7718095593
 20
-0.0936955887
 30
0.0
 40
2.1166666667
 41
0.0
 46
0.0
 71
     1
 72
     1
  1
%%p
  7
SLDTEXTSTYLE1
 73
     1
 44
1.0
  0
MTEXT
  5
124
330
11E
100
AcDbEntity
  8
TITLE_BLOCK
 62
     0
100
AcDbMText
 10
6.7896982655
 20
-0.0936957051
 30
0.0
 40
2.1166666667
 41
0.0
 46
0.0
 71
     1
 72
     1
  1
1.0
  7
SLDTEXTSTYLE1
 73
     1
 44
1.0
  0
MTEXT
  5
125
330
11E
100
AcDbEntity
  8
TITLE_BLOCK
 62
     0
100
AcDbMText
 10
0.0
 20
-2.915918126
 30
0.0
 40
2.1166666667
 41
0.0
 46
0.0
 71
     1
 72
     1
  1
0.0 = 
  7
SLDTEXTSTYLE1
 73
     1
 44
1.0
  0
MTEXT
  5
126
330
11E
100
AcDbEntity
  8
TITLE_BLOCK
 62
     0
100
AcDbMText
 10
7.0384070277
 20
-2.9159180096
 30
0.0
 40
2.1166666667
 41
0.0
 46
0.0
 71
     1
 72
     1
  1
%%p
  7
SLDTEXTSTYLE1
 73
     1
 44
1.0
  0
MTEXT
  5
127
330
11E
100
AcDbEntity
  8
TITLE_BLOCK
 62
     0
100
AcDbMText
 10
9.0562961996
 20
-2.915918126
 30
0.0
 40
2.1166666667
 41
0.0
 46
0.0
 71
     1
 72
     1
  1
0.1
  7
SLDTEXTSTYLE1
 73
     1
 44
1.0
  0
MTEXT
  5
128
330
11E
100
AcDbEntity
  8
TITLE_BLOCK
 62
     0
100
AcDbMText
 10
0.0
 20
-5.738140547
 30
0.0
 40
2.1166666667
 41
0.0
 46
0.0
 71
     1
 72
     1
  1
0.00 = 
  7
SLDTEXTSTYLE1
 73
     1
 44
1.0
  0
MTEXT
  5
129
330
11E
100
AcDbEntity
  8
TITLE_BLOCK
 62
     0
100
AcDbMText
 10
8.5803400725
 20
-5.7381404306
 30
0.0
 40
2.1166666667
 41
0.0
 46
0.0
 71
     1
 72
     1
  1
%%p
  7
SLDTEXTSTYLE1
 73
     1
 44
1.0
  0
MTEXT
  5
12A
330
11E
100
AcDbEntity
  8
TITLE_BLOCK
 62
     0
100
AcDbMText
 10
10.598228313
 20
-5.738140547
 30
0.0
 40
2.1166666667
 41
0.0
 46
0.0
 71
     1
 72
     1
  1
0.05
  7
SLDTEXTSTYLE1
 73
     1
 44
1.0
  0
ENDBLK
  5
120
330
11E
100
AcDbEntity
  8
0
100
AcDbBlockEnd
  0
BLOCK
  5
12E
330
12D
100
AcDbEntity
  8
0
100
AcDbBlockBegin
  2
SW_NOTE_5
 70
     0
 10
0.0
 20
0.0
 30
0.0
  3
SW_NOTE_5
  1

  0
MTEXT
  5
130
330
12D
100
AcDbEntity
  8
TITLE_BLOCK
 62
     0
100
AcDbMText
 10
0.0
 20
2.7285267159
 30
0.0
 40
2.1166666667
 41
0.0
 46
0.0
 71
     1
 72
     1
  1
LINEAR:
  7
SLDTEXTSTYLE1
 73
     1
 44
1.0
  0
MTEXT
  5
131
330
12D
100
AcDbEntity
  8
TITLE_BLOCK
 62
     0
100
AcDbMText
 10
0.0
 20
-0.0936957051
 30
0.0
 40
2.1166666667
 41
0.0
 46
0.0
 71
     1
 72
     1
  1
0 = 
  7
SLDTEXTSTYLE0
 73
     1
 44
1.0
  0
MTEXT
  5
132
330
12D
100
AcDbEntity
  8
TITLE_BLOCK
 62
     0
100
AcDbMText
 10
4.7718095593
 20
-0.0936955887
 30
0.0
 40
2.1166666667
 41
0.0
 46
0.0
 71
     1
 72
     1
  1
%%p
  7
SLDTEXTSTYLE1
 73
     1
 44
1.0
  0
MTEXT
  5
133
330
12D
100
AcDbEntity
  8
TITLE_BLOCK
 62
     0
100
AcDbMText
 10
6.7896982655
 20
-0.0936957051
 30
0.0
 40
2.1166666667
 41
0.0
 46
0.0
 71
     1
 72
     1
  1
1.0
  7
SLDTEXTSTYLE1
 73
     1
 44
1.0
  0
MTEXT
  5
134
330
12D
100
AcDbEntity
  8
TITLE_BLOCK
 62
     0
100
AcDbMText
 10
0.0
 20
-2.915918126
 30
0.0
 40
2.1166666667
 41
0.0
 46
0.0
 71
     1
 72
     1
  1
0.0 = 
  7
SLDTEXTSTYLE1
 73
     1
 44
1.0
  0
MTEXT
  5
135
330
12D
100
AcDbEntity
  8
TITLE_BLOCK
 62
     0
100
AcDbMText
 10
7.0384070277
 20
-2.9159180096
 30
0.0
 40
2.1166666667
 41
0.0
 46
0.0
 71
     1
 72
     1
  1
%%p
  7
SLDTEXTSTYLE1
 73
     1
 44
1.0
  0
MTEXT
  5
136
330
12D
100
AcDbEntity
  8
TITLE_BLOCK
 62
     0
100
AcDbMText
 10
9.0562961996
 20
-2.915918126
 30
0.0
 40
2.1166666667
 41
0.0
 46
0.0
 71
     1
 72
     1
  1
0.2
  7
SLDTEXTSTYLE1
 73
     1
 44
1.0
  0
MTEXT
  5
137
330
12D
100
AcDbEntity
  8
TITLE_BLOCK
 62
     0
100
AcDbMText
 10
0.0
 20
-5.738140547
 30
0.0
 40
2.1166666667
 41
0.0
 46
0.0
 71
     1
 72
     1
  1
0.00 = 
  7
SLDTEXTSTYLE1
 73
     1
 44
1.0
  0
MTEXT
  5
138
330
12D
100
AcDbEntity
  8
TITLE_BLOCK
 62
     0
100
AcDbMText
 10
8.5803400725
 20
-5.7381404306
 30
0.0
 40
2.1166666667
 41
0.0
 46
0.0
 71
     1
 72
     1
  1
%%p
  7
SLDTEXTSTYLE1
 73
     1
 44
1.0
  0
MTEXT
  5
139
330
12D
100
AcDbEntity
  8
TITLE_BLOCK
 62
     0
100
AcDbMText
 10
10.598228313
 20
-5.738140547
 30
0.0
 40
2.1166666667
 41
0.0
 46
0.0
 71
     1
 72
     1
  1
0.1
  7
SLDTEXTSTYLE1
 73
     1
 44
1.0
  0
ENDBLK
  5
12F
330
12D
100
AcDbEntity
  8
0
100
AcDbBlockEnd
  0
BLOCK
  5
141
330
140
100
AcDbEntity
  8
0
100
AcDbBlockBegin
  2
SW_TABLEANNOTATION_0
 70
     0
 10
0.0
 20
0.0
 30
0.0
  3
SW_TABLEANNOTATION_0
  1

  0
LINE
  5
143
330
140
100
AcDbEntity
  8
SLD-0
 62
     0
100
AcDbLine
 10
0.0
 20
0.0
 30
0.0
 11
0.0
 21
-10.0
 31
0.0
  0
LINE
  5
144
330
140
100
AcDbEntity
  8
SLD-0
 62
     0
100
AcDbLine
 10
0.0
 20
-10.0
 30
0.0
 11
148.1073946814
 21
-10.0
 31
0.0
  0
LINE
  5
145
330
140
100
AcDbEntity
  8
SLD-0
 62
     0
100
AcDbLine
 10
148.1073946814
 20
-10.0
 30
0.0
 11
148.1073946814
 21
0.0
 31
0.0
  0
LINE
  5
146
330
140
100
AcDbEntity
  8
SLD-0
 62
     0
100
AcDbLine
 10
148.1073946814
 20
0.0
 30
0.0
 11
0.0
 21
0.0
 31
0.0
  0
LINE
  5
147
330
140
100
AcDbEntity
  8
SLD-0
 62
     0
100
AcDbLine
 10
10.0
 20
0.0
 30
0.0
 11
10.0
 21
-5.0
 31
0.0
  0
LINE
  5
148
330
140
100
AcDbEntity
  8
SLD-0
 62
     0
100
AcDbLine
 10
93.8136084711
 20
0.0
 30
0.0
 11
93.8136084711
 21
-5.0
 31
0.0
  0
LINE
  5
149
330
140
100
AcDbEntity
  8
SLD-0
 62
     0
100
AcDbLine
 10
112.1073946814
 20
0.0
 30
0.0
 11
112.1073946814
 21
-5.0
 31
0.0
  0
LINE
  5
14A
330
140
100
AcDbEntity
  8
SLD-0
 62
     0
100
AcDbLine
 10
124.1073946814
 20
0.0
 30
0.0
 11
124.1073946814
 21
-5.0
 31
0.0
  0
LINE
  5
14B
330
140
100
AcDbEntity
  8
SLD-0
 62
     0
100
AcDbLine
 10
136.1073946814
 20
0.0
 30
0.0
 11
136.1073946814
 21
-5.0
 31
0.0
  0
LINE
  5
14C
330
140
100
AcDbEntity
  8
SLD-0
 62
     0
100
AcDbLine
 10
0.0
 20
-5.0
 30
0.0
 11
148.1073946814
 21
-5.0
 31
0.0
  0
MTEXT
  5
14D
330
140
100
AcDbEntity
  8
SLD-0
 62
     0
100
AcDbMText
 10
2.0053085126
 20
-1.4492568552
 30
0.0
 40
2.1166666667
 41
0.0
 46
0.0
 71
     1
 72
     1
  1
REV.
  7
SLDTEXTSTYLE1
 73
     1
 44
1.0
  0
MTEXT
  5
14E
330
140
100
AcDbEntity
  8
SLD-0
 62
     0
100
AcDbMText
 10
43.046202192
 20
-1.4492568552
 30
0.0
 40
2.1166666667
 41
0.0
 46
0.0
 71
     1
 72
     1
  1
DESCRIPTION
  7
SLDTEXTSTYLE1
 73
     1
 44
1.0
  0
MTEXT
  5
14F
330
140
100
AcDbEntity
  8
SLD-0
 62
     0
100
AcDbMText
 10
99.5071991463
 20
-1.4492568552
 30
0.0
 40
2.1166666667
 41
0.0
 46
0.0
 71
     1
 72
     1
  1
DATE
  7
SLDTEXTSTYLE1
 73
     1
 44
1.0
  0
MTEXT
  5
150
330
140
100
AcDbEntity
  8
SLD-0
 62
     0
100
AcDbMText
 10
115.1558206353
 20
-1.4492568552
 30
0.0
 40
2.1166666667
 41
0.0
 46
0.0
 71
     1
 72
     1
  1
DRN
  7
SLDTEXTSTYLE1
 73
     1
 44
1.0
  0
MTEXT
  5
151
330
140
100
AcDbEntity
  8
SLD-0
 62
     0
100
AcDbMText
 10
127.163660043
 20
-1.4492568552
 30
0.0
 40
2.1166666667
 41
0.0
 46
0.0
 71
     1
 72
     1
  1
CHK
  7
SLDTEXTSTYLE1
 73
     1
 44
1.0
  0
MTEXT
  5
152
330
140
100
AcDbEntity
  8
SLD-0
 62
     0
100
AcDbMText
 10
138.536499505
 20
-1.4492568552
 30
0.0
 40
2.1166666667
 41
0.0
 46
0.0
 71
     1
 72
     1
  1
APPR
  7
SLDTEXTSTYLE1
 73
     1
 44
1.0
  0
MTEXT
  5
153
330
140
100
AcDbEntity
  8
SLD-0
 62
     0
100
AcDbMText
 10
67.1314131995
 20
-6.4492568552
 30
0.0
 40
2.1166666667
 41
0.0
 46
0.0
 71
     1
 72
     1
  1
REVISIONS
  7
SLDTEXTSTYLE1
 73
     1
 44
1.0
  0
ENDBLK
  5
142
330
140
100
AcDbEntity
  8
0
100
AcDbBlockEnd
  0
BLOCK
  5
2C8
330
2C7
100
AcDbEntity
  8
0
100
AcDbBlockBegin
  2
*D8
 70
     1
 10
0.0
 20
0.0
 30
0.0
  3
*D8
  1

  0
SOLID
  5
2CA
330
2C7
100
AcDbEntity
  8
SLD-0
100
AcDbTrace
 10
202.592102177
 20
197.4093531879
 30
0.0
 11
205.894102177
 21
196.9013531879
 31
0.0
 12
205.894102177
 22
197.9173531879
 32
0.0
 13
205.894102177
 23
197.9173531879
 33
0.0
  0
SOLID
  5
2CB
330
2C7
100
AcDbEntity
  8
SLD-0
100
AcDbTrace
 10
234.592102177
 20
197.4093531879
 30
0.0
 11
231.290102177
 21
197.9173531879
 31
0.0
 12
231.290102177
 22
196.9013531879
 32
0.0
 13
231.290102177
 23
196.9013531879
 33
0.0
  0
LINE
  5
2CC
330
2C7
100
AcDbEntity
  8
SLD-0
100
AcDbLine
 10
202.592102177
 20
171.0657612143
 30
0.0
 11
202.592102177
 21
198.4093531879
 31
0.0
  0
LINE
  5
2CD
330
2C7
100
AcDbEntity
  8
SLD-0
100
AcDbLine
 10
234.592102177
 20
171.0657612143
 30
0.0
 11
234.592102177
 21
198.4093531879
 31
0.0
  0
LINE
  5
2CE
330
2C7
100
AcDbEntity
  8
SLD-0
100
AcDbLine
 10
202.592102177
 20
197.4093531879
 30
0.0
 11
234.592102177
 21
197.4093531879
 31
0.0
  0
MTEXT
  5
2CF
330
2C7
100
AcDbEntity
  8
SLD-0
100
AcDbMText
 10
216.0074633271
 20
201.9210901025
 30
0.0
 40
3.5
 41
0.0
 46
0.0
 71
     1
 72
     1
  1
32
  7
SLDTEXTSTYLE1
 73
     1
 44
1.0
  0
ENDBLK
  5
2C9
330
2C7
100
AcDbEntity
  8
0
100
AcDbBlockEnd
  0
BLOCK
  5
2D3
330
2D2
100
AcDbEntity
  8
0
100
AcDbBlockBegin
  2
*D9
 70
     1
 10
0.0
 20
0.0
 30
0.0
  3
*D9
  1

  0
SOLID
  5
2D5
330
2D2
100
AcDbEntity
  8
SLD-0
100
AcDbTrace
 10
195.592102177
 20
197.4093531879
 30
0.0
 11
192.290102177
 21
197.9173531879
 31
0.0
 12
192.290102177
 22
196.9013531879
 32
0.0
 13
192.290102177
 23
196.9013531879
 33
0.0
  0
SOLID
  5
2D6
330
2D2
100
AcDbEntity
  8
SLD-0
100
AcDbTrace
 10
202.592102177
 20
197.4093531879
 30
0.0
 11
205.894102177
 21
196.9013531879
 31
0.0
 12
205.894102177
 22
197.9173531879
 32
0.0
 13
205.894102177
 23
197.9173531879
 33
0.0
  0
LINE
  5
2D7
330
2D2
100
AcDbEntity
  8
SLD-0
100
AcDbLine
 10
195.592102177
 20
169.5657612143
 30
0.0
 11
195.592102177
 21
198.4093531879
 31
0.0
  0
LINE
  5
2D8
330
2D2
100
AcDbEntity
  8
SLD-0
100
AcDbLine
 10
202.592102177
 20
171.0657612143
 30
0.0
 11
202.592102177
 21
198.4093531879
 31
0.0
  0
LINE
  5
2D9
330
2D2
100
AcDbEntity
  8
SLD-0
100
AcDbLine
 10
195.592102177
 20
197.4093531879
 30
0.0
 11
189.242102177
 21
197.4093531879
 31
0.0
  0
LINE
  5
2DA
330
2D2
100
AcDbEntity
  8
SLD-0
100
AcDbLine
 10
195.592102177
 20
197.4093531879
 30
0.0
 11
202.592102177
 21
197.4093531879
 31
0.0
  0
LINE
  5
2DB
330
2D2
100
AcDbEntity
  8
SLD-0
100
AcDbLine
 10
202.592102177
 20
197.4093531879
 30
0.0
 11
208.942102177
 21
197.4093531879
 31
0.0
  0
MTEXT
  5
2DC
330
2D2
100
AcDbEntity
  8
SLD-0
100
AcDbMText
 10
197.8009893995
 20
201.9210901025
 30
0.0
 40
3.5
 41
0.0
 46
0.0
 71
     1
 72
     1
  1
7
  7
SLDTEXTSTYLE1
 73
     1
 44
1.0
  0
ENDBLK
  5
2D4
330
2D2
100
AcDbEntity
  8
0
100
AcDbBlockEnd
  0
BLOCK
  5
2DF
330
2DE
100
AcDbEntity
  8
0
100
AcDbBlockBegin
  2
*D10
 70
     1
 10
0.0
 20
0.0
 30
0.0
  3
*D10
  1

  0
SOLID
  5
2E1
330
2DE
100
AcDbEntity
  8
SLD-0
100
AcDbTrace
 10
234.592102177
 20
197.4093531879
 30
0.0
 11
231.290102177
 21
197.9173531879
 31
0.0
 12
231.290102177
 22
196.9013531879
 32
0.0
 13
231.290102177
 23
196.9013531879
 33
0.0
  0
SOLID
  5
2E2
330
2DE
100
AcDbEntity
  8
SLD-0
100
AcDbTrace
 10
245.592102177
 20
197.4093531879
 30
0.0
 11
248.894102177
 21
196.9013531879
 31
0.0
 12
248.894102177
 22
197.9173531879
 32
0.0
 13
248.894102177
 23
197.9173531879
 33
0.0
  0
LINE
  5
2E3
330
2DE
100
AcDbEntity
  8
SLD-0
100
AcDbLine
 10
234.592102177
 20
171.0657612143
 30
0.0
 11
234.592102177
 21
198.4093531879
 31
0.0
  0
LINE
  5
2E4
330
2DE
100
AcDbEntity
  8
SLD-0
100
AcDbLine
 10
245.592102177
 20
169.5657612143
 30
0.0
 11
245.592102177
 21
198.4093531879
 31
0.0
  0
LINE
  5
2E5
330
2DE
100
AcDbEntity
  8
SLD-0
100
AcDbLine
 10
234.592102177
 20
197.4093531879
 30
0.0
 11
228.242102177
 21
197.4093531879
 31
0.0
  0
LINE
  5
2E6
330
2DE
100
AcDbEntity
  8
SLD-0
100
AcDbLine
 10
234.592102177
 20
197.4093531879
 30
0.0
 11
245.592102177
 21
197.4093531879
 31
0.0
  0
LINE
  5
2E7
330
2DE
100
AcDbEntity
  8
SLD-0
100
AcDbLine
 10
245.592102177
 20
197.4093531879
 30
0.0
 11
251.942102177
 21
197.4093531879
 31
0.0
  0
MTEXT
  5
2E8
330
2DE
100
AcDbEntity
  8
SLD-0
100
AcDbMText
 10
237.5074633271
 20
201.9210901025
 30
0.0
 40
3.5
 41
0.0
 46
0.0
 71
     1
 72
     1
  1
11
  7
SLDTEXTSTYLE1
 73
     1
 44
1.0
  0
ENDBLK
  5
2E0
330
2DE
100
AcDbEntity
  8
0
100
AcDbBlockEnd
  0
BLOCK
  5
2EB
330
2EA
100
AcDbEntity
  8
0
100
AcDbBlockBegin
  2
*D11
 70
     1
 10
0.0
 20
0.0
 30
0.0
  3
*D11
  1

  0
SOLID
  5
2ED
330
2EA
100
AcDbEntity
  8
SLD-0
100
AcDbTrace
 10
164.9385360229
 20
170.0657612143
 30
0.0
 11
164.4305360229
 21
166.7637612143
 31
0.0
 12
165.4465360229
 22
166.7637612143
 32
0.0
 13
165.4465360229
 23
166.7637612143
 33
0.0
  0
SOLID
  5
2EE
330
2EA
100
AcDbEntity
  8
SLD-0
100
AcDbTrace
 10
164.9385360229
 20
145.0657612143
 30
0.0
 11
165.4465360229
 21
148.3677612143
 31
0.0
 12
164.4305360229
 22
148.3677612143
 32
0.0
 13
164.4305360229
 23
148.3677612143
 33
0.0
  0
LINE
  5
2EF
330
2EA
100
AcDbEntity
  8
SLD-0
100
AcDbLine
 10
196.092102177
 20
170.0657612143
 30
0.0
 11
163.9385360229
 21
170.0657612143
 31
0.0
  0
LINE
  5
2F0
330
2EA
100
AcDbEntity
  8
SLD-0
100
AcDbLine
 10
196.092102177
 20
145.0657612143
 30
0.0
 11
163.9385360229
 21
145.0657612143
 31
0.0
  0
LINE
  5
2F1
330
2EA
100
AcDbEntity
  8
SLD-0
100
AcDbLine
 10
164.9385360229
 20
170.0657612143
 30
0.0
 11
164.9385360229
 21
145.0657612143
 31
0.0
  0
MTEXT
  5
2F2
330
2EA
100
AcDbEntity
  8
SLD-0
100
AcDbMText
 10
160.4267991083
 20
154.9811223644
 30
0.0
 40
3.5
 41
0.0
 46
0.0
 71
     1
 72
     1
  1
25
  7
SLDTEXTSTYLE1
 11
-7.044195017643634E-15
 21
1.0
 31
0.0
 73
     1
 44
1.0
  0
ENDBLK
  5
2EC
330
2EA
100
AcDbEntity
  8
0
100
AcDbBlockEnd
  0
BLOCK
  5
2F5
330
2F4
100
AcDbEntity
  8
0
100
AcDbBlockBegin
  2
*D12
 70
     1
 10
0.0
 20
0.0
 30
0.0
  3
*D12
  1

  0
SOLID
  5
2F7
330
2F4
100
AcDbEntity
  8
SLD-0
100
AcDbTrace
 10
273.592102177
 20
147.0657612143
 30
0.0
 11
274.100102177
 21
150.3677612143
 31
0.0
 12
273.084102177
 22
150.3677612143
 32
0.0
 13
273.084102177
 23
150.3677612143
 33
0.0
  0
SOLID
  5
2F8
330
2F4
100
AcDbEntity
  8
SLD-0
100
AcDbTrace
 10
273.592102177
 20
145.0657612143
 30
0.0
 11
273.084102177
 21
141.7637612143
 31
0.0
 12
274.100102177
 22
141.7637612143
 32
0.0
 13
274.100102177
 23
141.7637612143
 33
0.0
  0
LINE
  5
2F9
330
2F4
100
AcDbEntity
  8
SLD-0
100
AcDbLine
 10
245.092102177
 20
147.0657612143
 30
0.0
 11
274.592102177
 21
147.0657612143
 31
0.0
  0
LINE
  5
2FA
330
2F4
100
AcDbEntity
  8
SLD-0
100
AcDbLine
 10
221.092102177
 20
145.0657612143
 30
0.0
 11
274.592102177
 21
145.0657612143
 31
0.0
  0
LINE
  5
2FB
330
2F4
100
AcDbEntity
  8
SLD-0
100
AcDbLine
 10
273.592102177
 20
147.0657612143
 30
0.0
 11
273.592102177
 21
153.4157612143
 31
0.0
  0
LINE
  5
2FC
330
2F4
100
AcDbEntity
  8
SLD-0
100
AcDbLine
 10
273.592102177
 20
147.0657612143
 30
0.0
 11
273.592102177
 21
145.0657612143
 31
0.0
  0
LINE
  5
2FD
330
2F4
100
AcDbEntity
  8
SLD-0
100
AcDbLine
 10
273.592102177
 20
145.0657612143
 30
0.0
 11
273.592102177
 21
141.2960538003
 31
0.0
  0
MTEXT
  5
2FE
330
2F4
100
AcDbEntity
  8
SLD-0
100
AcDbMText
 10
269.0803652624
 20
142.8835538003
 30
0.0
 40
3.5
 41
0.0
 46
0.0
 71
     1
 72
     1
  1
2
  7
SLDTEXTSTYLE1
 11
-7.044195017643634E-15
 21
1.0
 31
0.0
 73
     1
 44
1.0
  0
ENDBLK
  5
2F6
330
2F4
100
AcDbEntity
  8
0
100
AcDbBlockEnd
  0
BLOCK
  5
301
330
300
100
AcDbEntity
  8
0
100
AcDbBlockBegin
  2
*D13
 70
     1
 10
0.0
 20
0.0
 30
0.0
  3
*D13
  1

  0
SOLID
  5
303
330
300
100
AcDbEntity
  8
SLD-0
100
AcDbTrace
 10
195.592102177
 20
132.6779926631
 30
0.0
 11
198.894102177
 21
132.1699926631
 31
0.0
 12
198.894102177
 22
133.1859926631
 32
0.0
 13
198.894102177
 23
133.1859926631
 33
0.0
  0
SOLID
  5
304
330
300
100
AcDbEntity
  8
SLD-0
100
AcDbTrace
 10
245.592102177
 20
132.6779926631
 30
0.0
 11
242.290102177
 21
133.1859926631
 31
0.0
 12
242.290102177
 22
132.1699926631
 32
0.0
 13
242.290102177
 23
132.1699926631
 33
0.0
  0
LINE
  5
305
330
300
100
AcDbEntity
  8
SLD-0
100
AcDbLine
 10
195.592102177
 20
145.5657612143
 30
0.0
 11
195.592102177
 21
131.6779926631
 31
0.0
  0
LINE
  5
306
330
300
100
AcDbEntity
  8
SLD-0
100
AcDbLine
 10
245.592102177
 20
147.5657612143
 30
0.0
 11
245.592102177
 21
131.6779926631
 31
0.0
  0
LINE
  5
307
330
300
100
AcDbEntity
  8
SLD-0
100
AcDbLine
 10
195.592102177
 20
132.6779926631
 30
0.0
 11
245.592102177
 21
132.6779926631
 31
0.0
  0
MTEXT
  5
308
330
300
100
AcDbEntity
  8
SLD-0
100
AcDbMText
 10
218.0074633271
 20
137.1897295776
 30
0.0
 40
3.5
 41
0.0
 46
0.0
 71
     1
 72
     1
  1
50
  7
SLDTEXTSTYLE1
 73
     1
 44
1.0
  0
ENDBLK
  5
302
330
300
100
AcDbEntity
  8
0
100
AcDbBlockEnd
  0
BLOCK
  5
30B
330
30A
100
AcDbEntity
  8
0
100
AcDbBlockBegin
  2
*D14
 70
     1
 10
0.0
 20
0.0
 30
0.0
  3
*D14
  1

  0
SOLID
  5
30D
330
30A
100
AcDbEntity
  8
SLD-0
100
AcDbTrace
 10
185.4431517959
 20
170.0657612143
 30
0.0
 11
185.9511517959
 21
173.3677612143
 31
0.0
 12
184.9351517959
 22
173.3677612143
 32
0.0
 13
184.9351517959
 23
173.3677612143
 33
0.0
  0
SOLID
  5
30E
330
30A
100
AcDbEntity
  8
SLD-0
100
AcDbTrace
 10
185.4431517959
 20
163.0657612143
 30
0.0
 11
184.9351517959
 21
159.7637612143
 31
0.0
 12
185.9511517959
 22
159.7637612143
 32
0.0
 13
185.9511517959
 23
159.7637612143
 33
0.0
  0
LINE
  5
30F
330
30A
100
AcDbEntity
  8
SLD-0
100
AcDbLine
 10
196.092102177
 20
170.0657612143
 30
0.0
 11
184.4431517959
 21
170.0657612143
 31
0.0
  0
LINE
  5
310
330
30A
100
AcDbEntity
  8
SLD-0
100
AcDbLine
 10
194.592102177
 20
163.0657612143
 30
0.0
 11
184.4431517959
 21
163.0657612143
 31
0.0
  0
LINE
  5
311
330
30A
100
AcDbEntity
  8
SLD-0
100
AcDbLine
 10
185.4431517959
 20
170.0657612143
 30
0.0
 11
185.4431517959
 21
176.4157612143
 31
0.0
  0
LINE
  5
312
330
30A
100
AcDbEntity
  8
SLD-0
100
AcDbLine
 10
185.4431517959
 20
170.0657612143
 30
0.0
 11
185.4431517959
 21
163.0657612143
 31
0.0
  0
LINE
  5
313
330
30A
100
AcDbEntity
  8
SLD-0
100
AcDbLine
 10
185.4431517959
 20
163.0657612143
 30
0.0
 11
185.4431517959
 21
156.7157612143
 31
0.0
  0
MTEXT
  5
314
330
30A
100
AcDbEntity
  8
SLD-0
100
AcDbMText
 10
180.9314148813
 20
165.2746484368
 30
0.0
 40
3.5
 41
0.0
 46
0.0
 71
     1
 72
     1
  1
7
  7
SLDTEXTSTYLE1
 11
-7.044195017643634E-15
 21
1.0
 31
0.0
 73
     1
 44
1.0
  0
ENDBLK
  5
30C
330
30A
100
AcDbEntity
  8
0
100
AcDbBlockEnd
  0
BLOCK
  5
317
330
316
100
AcDbEntity
  8
0
100
AcDbBlockBegin
  2
*D15
 70
     1
 10
0.0
 20
0.0
 30
0.0
  3
*D15
  1

  0
SOLID
  5
319
330
316
100
AcDbEntity
  8
SLD-0
100
AcDbTrace
 10
195.592102177
 20
132.6677664594
 30
0.0
 11
198.894102177
 21
132.1597664594
 31
0.0
 12
198.894102177
 22
133.1757664594
 32
0.0
 13
198.894102177
 23
133.1757664594
 33
0.0
  0
SOLID
  5
31A
330
316
100
AcDbEntity
  8
SLD-0
100
AcDbTrace
 10
220.592102177
 20
132.6677664594
 30
0.0
 11
217.290102177
 21
133.1757664594
 31
0.0
 12
217.290102177
 22
132.1597664594
 32
0.0
 13
217.290102177
 23
132.1597664594
 33
0.0
  0
LINE
  5
31B
330
316
100
AcDbEntity
  8
SLD-0
100
AcDbLine
 10
195.592102177
 20
145.5657612143
 30
0.0
 11
195.592102177
 21
131.6677664594
 31
0.0
  0
LINE
  5
31C
330
316
100
AcDbEntity
  8
SLD-0
100
AcDbLine
 10
220.592102177
 20
145.5657612143
 30
0.0
 11
220.592102177
 21
131.6677664594
 31
0.0
  0
LINE
  5
31D
330
316
100
AcDbEntity
  8
SLD-0
100
AcDbLine
 10
195.592102177
 20
132.6677664594
 30
0.0
 11
220.592102177
 21
132.6677664594
 31
0.0
  0
MTEXT
  5
31E
330
316
100
AcDbEntity
  8
SLD-0
100
AcDbMText
 10
205.5074633271
 20
137.1795033739
 30
0.0
 40
3.5
 41
0.0
 46
0.0
 71
     1
 72
     1
  1
25
  7
SLDTEXTSTYLE1
 73
     1
 44
1.0
  0
ENDBLK
  5
318
330
316
100
AcDbEntity
  8
0
100
AcDbBlockEnd
  0
BLOCK
  5
322
330
321
100
AcDbEntity
  8
0
100
AcDbBlockBegin
  2
*D16
 70
     1
 10
0.0
 20
0.0
 30
0.0
  3
*D16
  1

  0
ARC
  5
324
330
321
100
AcDbEntity
  8
SLD-0
100
AcDbCircle
 10
244.092102177
 20
168.5657612143
 30
0.0
 40
1.50000000000001
100
AcDbArc
 50
123.690067526
 51
170.1884785009
  0
SOLID
  5
325
330
321
100
AcDbEntity
  8
SLD-0
100
AcDbTrace
 10
243.0040692568
 20
169.5983232535
 30
0.0
 11
240.9586404658
 21
172.2398169713
 31
0.0
 12
240.259251778
 22
171.5028560067
 32
0.0
 13
240.259251778
 23
171.5028560067
 33
0.0
  0
LINE
  5
326
330
321
100
AcDbEntity
  8
SLD-0
100
AcDbLine
 10
243.0040692568
 20
169.5983232535
 30
0.0
 11
240.4882302039
 21
171.9858979808
 31
0.0
  0
LINE
  5
327
330
321
100
AcDbEntity
  8
SLD-0
100
AcDbLine
 10
240.4882302039
 20
171.9858979808
 30
0.0
 11
246.8382302039
 21
171.9858979808
 31
0.0
  0
MTEXT
  5
328
330
321
100
AcDbEntity
  8
SLD-0
100
AcDbMText
 10
248.4257302039
 20
173.7199324526
 30
0.0
 40
3.5
 41
0.0
 46
0.0
 71
     1
 72
     1
  1
R
  7
SLDTEXTSTYLE1
 73
     1
 44
1.0
  0
MTEXT
  5
329
330
321
100
AcDbEntity
  8
SLD-0
100
AcDbMText
 10
251.2589384296
 20
173.7199324526
 30
0.0
 40
3.5
 41
0.0
 46
0.0
 71
     1
 72
     1
  1
1.500
  7
SLDTEXTSTYLE1
 73
     1
 44
1.0
  0
ENDBLK
  5
323
330
321
100
AcDbEntity
  8
0
100
AcDbBlockEnd
  0
BLOCK
  5
32D
330
32C
100
AcDbEntity
  8
0
100
AcDbBlockBegin
  2
*D17
 70
     1
 10
0.0
 20
0.0
 30
0.0
  3
*D17
  1

  0
SOLID
  5
32F
330
32C
100
AcDbEntity
  8
SLD-0
100
AcDbTrace
 10
221.3668889987
 20
146.9834838527
 30
0.0
 11
223.6059873704
 21
149.4629407453
 31
0.0
 12
222.7571749693
 22
150.0213075671
 32
0.0
 13
222.7571749693
 23
150.0213075671
 33
0.0
  0
LINE
  5
330
330
32C
100
AcDbEntity
  8
SLD-0
100
AcDbLine
 10
221.3668889987
 20
146.9834838527
 30
0.0
 11
217.7483662774
 21
141.4827147539
 31
0.0
  0
LINE
  5
331
330
32C
100
AcDbEntity
  8
SLD-0
100
AcDbLine
 10
221.3668889987
 20
146.9834838527
 30
0.0
 11
224.8566816354
 21
152.2885613594
 31
0.0
  0
LINE
  5
332
330
32C
100
AcDbEntity
  8
SLD-0
100
AcDbLine
 10
217.7483662774
 20
141.4827147539
 30
0.0
 11
224.0983662774
 21
141.4827147539
 31
0.0
  0
MTEXT
  5
333
330
32C
100
AcDbEntity
  8
SLD-0
100
AcDbMText
 10
225.6858662774
 20
143.2167492257
 30
0.0
 40
3.5
 41
0.0
 46
0.0
 71
     1
 72
     1
  1
R
  7
SLDTEXTSTYLE1
 73
     1
 44
1.0
  0
MTEXT
  5
334
330
32C
100
AcDbEntity
  8
SLD-0
100
AcDbMText
 10
228.5190745031
 20
143.2167492257
 30
0.0
 40
3.5
 41
0.0
 46
0.0
 71
     1
 72
     1
  1
0.500
  7
SLDTEXTSTYLE1
 73
     1
 44
1.0
  0
ENDBLK
  5
32E
330
32C
100
AcDbEntity
  8
0
100
AcDbBlockEnd
  0
BLOCK
  5
337
330
336
100
AcDbEntity
  8
0
100
AcDbBlockBegin
  2
*D18
 70
     1
 10
0.0
 20
0.0
 30
0.0
  3
*D18
  1

  0
SOLID
  5
339
330
336
100
AcDbEntity
  8
SLD-0
100
AcDbTrace
 10
220.8111868934
 20
169.9468744585
 30
0.0
 11
222.788292912
 21
167.253861315
 31
0.0
 12
223.5063266422
 22
167.9726683561
 32
0.0
 13
223.5063266422
 23
167.9726683561
 33
0.0
  0
LINE
  5
33A
330
336
100
AcDbEntity
  8
SLD-0
100
AcDbLine
 10
220.8111868934
 20
169.9468744585
 30
0.0
 11
212.9962165684
 21
177.7534372386
 31
0.0
  0
LINE
  5
33B
330
336
100
AcDbEntity
  8
SLD-0
100
AcDbLine
 10
220.8111868934
 20
169.9468744585
 30
0.0
 11
225.3037309005
 21
165.4591636451
 31
0.0
  0
LINE
  5
33C
330
336
100
AcDbEntity
  8
SLD-0
100
AcDbLine
 10
212.9962165684
 20
177.7534372386
 30
0.0
 11
219.3462165684
 21
177.7534372386
 31
0.0
  0
MTEXT
  5
33D
330
336
100
AcDbEntity
  8
SLD-0
100
AcDbMText
 10
220.9337165684
 20
179.4874717104
 30
0.0
 40
3.5
 41
0.0
 46
0.0
 71
     1
 72
     1
  1
R
  7
SLDTEXTSTYLE1
 73
     1
 44
1.0
  0
MTEXT
  5
33E
330
336
100
AcDbEntity
  8
SLD-0
100
AcDbMText
 10
223.7669247941
 20
179.4874717104
 30
0.0
 40
3.5
 41
0.0
 46
0.0
 71
     1
 72
     1
  1
0.310
  7
SLDTEXTSTYLE1
 73
     1
 44
1.0
  0
ENDBLK
  5
338
330
336
100
AcDbEntity
  8
0
100
AcDbBlockEnd
  0
BLOCK
  5
340
330
33F
100
AcDbEntity
  8
0
100
AcDbBlockBegin
  2
SW_CENTERMARKSYMBOL_0
 70
     0
 10
0.0
 20
0.0
 30
0.0
  3
SW_CENTERMARKSYMBOL_0
  1

  0
LINE
  5
342
330
33F
100
AcDbEntity
  8
0
  6
Continuous
 62
     0
370
     0
100
AcDbLine
 10
0.0
 20
0.0
 30
0.0
 11
0.0
 21
2.5
 31
0.0
  0
LINE
  5
343
330
33F
100
AcDbEntity
  8
0
  6
Continuous
 62
     0
370
     0
100
AcDbLine
 10
0.0
 20
0.0
 30
0.0
 11
-2.5
 21
0.0
 31
0.0
  0
LINE
  5
344
330
33F
100
AcDbEntity
  8
0
  6
Continuous
 62
     0
370
     0
100
AcDbLine
 10
0.0
 20
0.0
 30
0.0
 11
0.0
 21
-2.5
 31
0.0
  0
LINE
  5
345
330
33F
100
AcDbEntity
  8
0
  6
Continuous
 62
     0
370
     0
100
AcDbLine
 10
0.0
 20
0.0
 30
0.0
 11
2.5
 21
0.0
 31
0.0
  0
LINE
  5
346
330
33F
100
AcDbEntity
  8
0
  6
Continuous
 62
     0
370
     0
100
AcDbLine
 10
0.0
 20
5.0
 30
0.0
 11
0.0
 21
7.0
 31
0.0
  0
LINE
  5
347
330
33F
100
AcDbEntity
  8
0
  6
Continuous
 62
     0
370
     0
100
AcDbLine
 10
-5.0
 20
0.0
 30
0.0
 11
-7.0
 21
0.0
 31
0.0
  0
LINE
  5
348
330
33F
100
AcDbEntity
  8
0
  6
Continuous
 62
     0
370
     0
100
AcDbLine
 10
0.0
 20
-5.0
 30
0.0
 11
0.0
 21
-7.0
 31
0.0
  0
LINE
  5
349
330
33F
100
AcDbEntity
  8
0
  6
Continuous
 62
     0
370
     0
100
AcDbLine
 10
5.0
 20
0.0
 30
0.0
 11
7.0
 21
0.0
 31
0.0
  0
ENDBLK
  5
341
330
33F
100
AcDbEntity
  8
0
100
AcDbBlockEnd
  0
BLOCK
  5
34C
330
34B
100
AcDbEntity
  8
0
100
AcDbBlockBegin
  2
SW_CENTERMARKSYMBOL_1
 70
     0
 10
0.0
 20
0.0
 30
0.0
  3
SW_CENTERMARKSYMBOL_1
  1

  0
LINE
  5
34E
330
34B
100
AcDbEntity
  8
0
  6
Continuous
 62
     0
370
     0
100
AcDbLine
 10
0.0
 20
0.0
 30
0.0
 11
0.0
 21
2.5
 31
0.0
  0
LINE
  5
34F
330
34B
100
AcDbEntity
  8
0
  6
Continuous
 62
     0
370
     0
100
AcDbLine
 10
0.0
 20
0.0
 30
0.0
 11
-2.5
 21
0.0
 31
0.0
  0
LINE
  5
350
330
34B
100
AcDbEntity
  8
0
  6
Continuous
 62
     0
370
     0
100
AcDbLine
 10
0.0
 20
0.0
 30
0.0
 11
0.0
 21
-2.5
 31
0.0
  0
LINE
  5
351
330
34B
100
AcDbEntity
  8
0
  6
Continuous
 62
     0
370
     0
100
AcDbLine
 10
0.0
 20
0.0
 30
0.0
 11
2.5
 21
0.0
 31
0.0
  0
LINE
  5
352
330
34B
100
AcDbEntity
  8
0
  6
Continuous
 62
     0
370
     0
100
AcDbLine
 10
0.0
 20
5.0
 30
0.0
 11
0.0
 21
7.0
 31
0.0
  0
LINE
  5
353
330
34B
100
AcDbEntity
  8
0
  6
Continuous
 62
     0
370
     0
100
AcDbLine
 10
-5.0
 20
0.0
 30
0.0
 11
-7.0
 21
0.0
 31
0.0
  0
LINE
  5
354
330
34B
100
AcDbEntity
  8
0
  6
Continuous
 62
     0
370
     0
100
AcDbLine
 10
0.0
 20
-5.0
 30
0.0
 11
0.0
 21
-7.0
 31
0.0
  0
LINE
  5
355
330
34B
100
AcDbEntity
  8
0
  6
Continuous
 62
     0
370
     0
100
AcDbLine
 10
5.0
 20
0.0
 30
0.0
 11
7.0
 21
0.0
 31
0.0
  0
ENDBLK
  5
34D
330
34B
100
AcDbEntity
  8
0
100
AcDbBlockEnd
  0
BLOCK
  5
358
330
357
100
AcDbEntity
  8
0
100
AcDbBlockBegin
  2
SW_CENTERMARKSYMBOL_2
 70
     0
 10
0.0
 20
0.0
 30
0.0
  3
SW_CENTERMARKSYMBOL_2
  1

  0
LINE
  5
35A
330
357
100
AcDbEntity
  8
0
  6
Continuous
 62
     0
370
     0
100
AcDbLine
 10
0.0
 20
0.0
 30
0.0
 11
0.0
 21
2.5
 31
0.0
  0
LINE
  5
35B
330
357
100
AcDbEntity
  8
0
  6
Continuous
 62
     0
370
     0
100
AcDbLine
 10
0.0
 20
0.0
 30
0.0
 11
-2.5
 21
0.0
 31
0.0
  0
LINE
  5
35C
330
357
100
AcDbEntity
  8
0
  6
Continuous
 62
     0
370
     0
100
AcDbLine
 10
0.0
 20
0.0
 30
0.0
 11
0.0
 21
-2.5
 31
0.0
  0
LINE
  5
35D
330
357
100
AcDbEntity
  8
0
  6
Continuous
 62
     0
370
     0
100
AcDbLine
 10
0.0
 20
0.0
 30
0.0
 11
2.5
 21
0.0
 31
0.0
  0
LINE
  5
35E
330
357
100
AcDbEntity
  8
0
  6
Continuous
 62
     0
370
     0
100
AcDbLine
 10
0.0
 20
2.5
 30
0.0
 11
0.0
 21
4.7415597743
 31
0.0
  0
LINE
  5
35F
330
357
100
AcDbEntity
  8
0
  6
Continuous
 62
     0
370
     0
100
AcDbLine
 10
-2.5
 20
0.0
 30
0.0
 11
-4.7415597743
 21
0.0
 31
0.0
  0
LINE
  5
360
330
357
100
AcDbEntity
  8
0
  6
Continuous
 62
     0
370
     0
100
AcDbLine
 10
0.0
 20
-2.5
 30
0.0
 11
0.0
 21
-4.7415597743
 31
0.0
  0
LINE
  5
361
330
357
100
AcDbEntity
  8
0
  6
Continuous
 62
     0
370
     0
100
AcDbLine
 10
2.5
 20
0.0
 30
0.0
 11
4.7415597743
 21
0.0
 31
0.0
  0
ENDBLK
  5
359
330
357
100
AcDbEntity
  8
0
100
AcDbBlockEnd
  0
BLOCK
  5
39E
330
39D
100
AcDbEntity
  8
0
100
AcDbBlockBegin
  2
*D22
 70
     1
 10
0.0
 20
0.0
 30
0.0
  3
*D22
  1

  0
LINE
  5
3A0
330
39D
100
AcDbEntity
  8
0
 62
     0
370
    -2
100
AcDbLine
 10
148.1072082740828
 20
150.9984591709867
 30
0.0
 11
148.1072082740828
 21
115.8542185326566
 31
0.0
  0
LINE
  5
3A1
330
39D
100
AcDbEntity
  8
0
 62
     0
370
    -2
100
AcDbLine
 10
198.9072090310028
 20
153.0304591745427
 30
0.0
 11
198.9072090310028
 21
115.8542185326566
 31
0.0
  0
LINE
  5
3A2
330
39D
100
AcDbEntity
  8
0
 62
     0
370
    -2
100
AcDbLine
 10
151.4092082740828
 20
116.8542185326566
 30
0.0
 11
195.6052090310028
 21
116.8542185326566
 31
0.0
  0
LINE
  5
3A3
330
39D
100
AcDbEntity
  8
0
 62
     0
370
    -2
100
AcDbLine
 10
195.6052090310028
 20
116.8542185326566
 30
0.0
 11
151.4092082740828
 21
116.8542185326566
 31
0.0
  0
SOLID
  5
3A4
330
39D
100
AcDbEntity
  8
0
 62
     0
100
AcDbTrace
 10
151.4092082740828
 20
117.40455186599
 30
0.0
 11
151.4092082740828
 21
116.3038851993233
 31
0.0
 12
148.1072082740828
 22
116.8542185326566
 32
0.0
 13
148.1072082740828
 23
116.8542185326566
 33
0.0
  0
SOLID
  5
3A5
330
39D
100
AcDbEntity
  8
0
 62
     0
100
AcDbTrace
 10
195.6052090310028
 20
116.3038851993233
 30
0.0
 11
195.6052090310028
 21
117.40455186599
 31
0.0
 12
198.9072090310028
 22
116.8542185326566
 32
0.0
 13
198.9072090310028
 23
116.8542185326566
 33
0.0
  0
MTEXT
  5
3A6
330
39D
100
AcDbEntity
  8
0
 62
     0
100
AcDbMText
 10
173.5072086525428
 20
120.4198851993233
 30
0.0
 40
3.5
 41
0.0
 46
0.0
 71
     5
 72
     1
  1
50,8
 73
     1
 44
1.0
  0
POINT
  5
3A7
330
39D
100
AcDbEntity
  8
Defpoints
 62
     0
100
AcDbPoint
 10
148.1072082740828
 20
151.9984591709867
 30
0.0
  0
POINT
  5
3A8
330
39D
100
AcDbEntity
  8
Defpoints
 62
     0
100
AcDbPoint
 10
198.9072090310028
 20
154.0304591745427
 30
0.0
  0
POINT
  5
3A9
330
39D
100
AcDbEntity
  8
Defpoints
 62
     0
100
AcDbPoint
 10
198.9072090310028
 20
116.8542185326566
 30
0.0
  0
ENDBLK
  5
39F
330
39D
100
AcDbEntity
  8
0
100
AcDbBlockEnd
  0
BLOCK
  5
3AE
330
3AD
100
AcDbEntity
  8
0
100
AcDbBlockBegin
  2
*D23
 70
     1
 10
0.0
 20
0.0
 30
0.0
  3
*D23
  1

  0
LINE
  5
3B0
330
3AD
100
AcDbEntity
  8
0
 62
     0
370
    -2
100
AcDbLine
 10
148.1072082740828
 20
150.9984591709867
 30
0.0
 11
148.1072082740828
 21
132.3876003183981
 31
0.0
  0
LINE
  5
3B1
330
3AD
100
AcDbEntity
  8
0
 62
     0
370
    -2
100
AcDbLine
 10
173.5072086525428
 20
135.4767133560711
 30
0.0
 11
173.5072086525428
 21
132.3876003183981
 31
0.0
  0
LINE
  5
3B2
330
3AD
100
AcDbEntity
  8
0
 62
     0
370
    -2
100
AcDbLine
 10
151.4092082740828
 20
133.3876003183981
 30
0.0
 11
170.2052086525428
 21
133.3876003183981
 31
0.0
  0
LINE
  5
3B3
330
3AD
100
AcDbEntity
  8
0
 62
     0
370
    -2
100
AcDbLine
 10
170.2052086525428
 20
133.3876003183981
 30
0.0
 11
151.4092082740828
 21
133.3876003183981
 31
0.0
  0
SOLID
  5
3B4
330
3AD
100
AcDbEntity
  8
0
 62
     0
100
AcDbTrace
 10
151.4092082740828
 20
133.9379336517315
 30
0.0
 11
151.4092082740828
 21
132.8372669850648
 31
0.0
 12
148.1072082740828
 22
133.3876003183981
 32
0.0
 13
148.1072082740828
 23
133.3876003183981
 33
0.0
  0
SOLID
  5
3B5
330
3AD
100
AcDbEntity
  8
0
 62
     0
100
AcDbTrace
 10
170.2052086525428
 20
132.8372669850648
 30
0.0
 11
170.2052086525428
 21
133.9379336517315
 31
0.0
 12
173.5072086525428
 22
133.3876003183981
 32
0.0
 13
173.5072086525428
 23
133.3876003183981
 33
0.0
  0
MTEXT
  5
3B6
330
3AD
100
AcDbEntity
  8
0
 62
     0
100
AcDbMText
 10
160.8072084633128
 20
136.9532669850648
 30
0.0
 40
3.5
 41
0.0
 46
0.0
 71
     5
 72
     1
  1
25,4
 73
     1
 44
1.0
  0
POINT
  5
3B7
330
3AD
100
AcDbEntity
  8
Defpoints
 62
     0
100
AcDbPoint
 10
148.1072082740828
 20
151.9984591709867
 30
0.0
  0
POINT
  5
3B8
330
3AD
100
AcDbEntity
  8
Defpoints
 62
     0
100
AcDbPoint
 10
173.5072086525428
 20
136.4767133560711
 30
0.0
  0
POINT
  5
3B9
330
3AD
100
AcDbEntity
  8
Defpoints
 62
     0
100
AcDbPoint
 10
173.5072086525428
 20
133.3876003183981
 30
0.0
  0
ENDBLK
  5
3AF
330
3AD
100
AcDbEntity
  8
0
100
AcDbBlockEnd
  0
BLOCK
  5
3BE
330
3BD
100
AcDbEntity
  8
0
100
AcDbBlockBegin
  2
*D24
 70
     1
 10
0.0
 20
0.0
 30
0.0
  3
*D24
  1

  0
LINE
  5
3C0
330
3BD
100
AcDbEntity
  8
0
 62
     0
370
    -2
100
AcDbLine
 10
215.2171357527491
 20
159.2161233978595
 30
0.0
 11
206.6931357527491
 21
159.2161233978595
 31
0.0
  0
LINE
  5
3C1
330
3BD
100
AcDbEntity
  8
0
 62
     0
370
    -2
100
AcDbLine
 10
206.6931357527491
 20
159.2161233978595
 30
0.0
 11
206.6931357527491
 21
152.5064593978595
 31
0.0
  0
LINE
  5
3C2
330
3BD
100
AcDbEntity
  8
0
 62
     0
370
    -2
100
AcDbLine
 10
198.3832097274708
 20
152.5064593978595
 30
0.0
 11
207.6931357527491
 21
152.5064593978595
 31
0.0
  0
LINE
  5
3C3
330
3BD
100
AcDbEntity
  8
0
 62
     0
370
    -2
100
AcDbLine
 10
198.3832097274708
 20
150.4744591709867
 30
0.0
 11
207.6931357527491
 21
150.4744591709867
 31
0.0
  0
LINE
  5
3C4
330
3BD
100
AcDbEntity
  8
0
 62
     0
370
    -2
100
AcDbLine
 10
206.6931357527491
 20
152.5064593978595
 30
0.0
 11
206.6931357527491
 21
150.4744591709867
 31
0.0
  0
LINE
  5
3C5
330
3BD
100
AcDbEntity
  8
0
 62
     0
370
    -2
100
AcDbLine
 10
206.6931357527491
 20
150.4744591709867
 30
0.0
 11
206.6931357527491
 21
152.5064593978595
 31
0.0
  0
LINE
  5
3C6
330
3BD
100
AcDbEntity
  8
0
 62
     0
370
    -2
100
AcDbLine
 10
206.6931357527491
 20
147.1724591709867
 30
0.0
 11
206.6931357527491
 21
143.8704591709867
 31
0.0
  0
SOLID
  5
3C7
330
3BD
100
AcDbEntity
  8
0
 62
     0
100
AcDbTrace
 10
206.1428024194158
 20
155.8084593978595
 30
0.0
 11
207.2434690860825
 21
155.8084593978595
 31
0.0
 12
206.6931357527491
 22
152.5064593978595
 32
0.0
 13
206.6931357527491
 23
152.5064593978595
 33
0.0
  0
SOLID
  5
3C8
330
3BD
100
AcDbEntity
  8
0
 62
     0
100
AcDbTrace
 10
207.2434690860825
 20
147.1724591709867
 30
0.0
 11
206.1428024194158
 21
147.1724591709867
 31
0.0
 12
206.6931357527491
 22
150.4744591709867
 32
0.0
 13
206.6931357527491
 23
150.4744591709867
 33
0.0
  0
MTEXT
  5
3C9
330
3BD
100
AcDbEntity
  8
0
 62
     0
100
AcDbMText
 10
211.7171357527491
 20
162.7817900645261
 30
0.0
 40
3.5
 41
0.0
 46
0.0
 71
     5
 72
     1
  1
2,0
 73
     1
 44
1.0
  0
POINT
  5
3CA
330
3BD
100
AcDbEntity
  8
Defpoints
 62
     0
100
AcDbPoint
 10
197.3832097274708
 20
152.5064593978595
 30
0.0
  0
POINT
  5
3CB
330
3BD
100
AcDbEntity
  8
Defpoints
 62
     0
100
AcDbPoint
 10
197.3832097274708
 20
150.4744591709867
 30
0.0
  0
POINT
  5
3CC
330
3BD
100
AcDbEntity
  8
Defpoints
 62
     0
100
AcDbPoint
 10
206.6127517527491
 20
150.4744591709867
 30
0.0
  0
ENDBLK
  5
3BF
330
3BD
100
AcDbEntity
  8
0
100
AcDbBlockEnd
  0
BLOCK
  5
3D1
330
3D0
100
AcDbEntity
  8
0
100
AcDbBlockBegin
  2
*D25
 70
     1
 10
0.0
 20
0.0
 30
0.0
  3
*D25
  1

  0
LINE
  5
3D3
330
3D0
100
AcDbEntity
  8
0
 62
     0
370
    -2
100
AcDbLine
 10
148.1072082740828
 20
175.3504582472395
 30
0.0
 11
148.1072082740828
 21
197.8938052290844
 31
0.0
  0
LINE
  5
3D4
330
3D0
100
AcDbEntity
  8
0
 62
     0
370
    -2
100
AcDbLine
 10
155.2192082740828
 20
169.7621854827355
 30
0.0
 11
155.2192082740828
 21
197.8938052290844
 31
0.0
  0
LINE
  5
3D5
330
3D0
100
AcDbEntity
  8
0
 62
     0
370
    -2
100
AcDbLine
 10
148.1072082740828
 20
196.8938052290844
 30
0.0
 11
122.7968471370887
 21
196.8938052290844
 31
0.0
  0
LINE
  5
3D6
330
3D0
100
AcDbEntity
  8
0
 62
     0
370
    -2
100
AcDbLine
 10
148.1072082740828
 20
196.8938052290844
 30
0.0
 11
155.2192082740828
 21
196.8938052290844
 31
0.0
  0
LINE
  5
3D7
330
3D0
100
AcDbEntity
  8
0
 62
     0
370
    -2
100
AcDbLine
 10
155.2192082740828
 20
196.8938052290844
 30
0.0
 11
148.1072082740828
 21
196.8938052290844
 31
0.0
  0
LINE
  5
3D8
330
3D0
100
AcDbEntity
  8
0
 62
     0
370
    -2
100
AcDbLine
 10
144.8052082740828
 20
196.8938052290844
 30
0.0
 11
141.5032082740828
 21
196.8938052290844
 31
0.0
  0
LINE
  5
3D9
330
3D0
100
AcDbEntity
  8
0
 62
     0
370
    -2
100
AcDbLine
 10
158.5212082740828
 20
196.8938052290844
 30
0.0
 11
161.8232082740828
 21
196.8938052290844
 31
0.0
  0
SOLID
  5
3DA
330
3D0
100
AcDbEntity
  8
0
 62
     0
100
AcDbTrace
 10
144.8052082740828
 20
196.343471895751
 30
0.0
 11
144.8052082740828
 21
197.4441385624177
 31
0.0
 12
148.1072082740828
 22
196.8938052290844
 32
0.0
 13
148.1072082740828
 23
196.8938052290844
 33
0.0
  0
SOLID
  5
3DB
330
3D0
100
AcDbEntity
  8
0
 62
     0
100
AcDbTrace
 10
158.5212082740828
 20
197.4441385624177
 30
0.0
 11
158.5212082740828
 21
196.343471895751
 31
0.0
 12
155.2192082740828
 22
196.8938052290844
 32
0.0
 13
155.2192082740828
 23
196.8938052290844
 33
0.0
  0
MTEXT
  5
3DC
330
3D0
100
AcDbEntity
  8
0
 62
     0
100
AcDbMText
 10
127.5291804704221
 20
200.459471895751
 30
0.0
 40
3.5
 41
0.0
 46
0.0
 71
     5
 72
     1
  1
7,1
 73
     1
 44
1.0
  0
POINT
  5
3DD
330
3D0
100
AcDbEntity
  8
Defpoints
 62
     0
100
AcDbPoint
 10
148.1072082740828
 20
174.3504582472395
 30
0.0
  0
POINT
  5
3DE
330
3D0
100
AcDbEntity
  8
Defpoints
 62
     0
100
AcDbPoint
 10
155.2192082740828
 20
168.7621854827355
 30
0.0
  0
POINT
  5
422
330
3D0
100
AcDbEntity
  8
Defpoints
 62
     0
100
AcDbPoint
 10
155.2192082740828
 20
196.8938052290844
 30
0.0
  0
ENDBLK
  5
3D2
330
3D0
100
AcDbEntity
  8
0
100
AcDbBlockEnd
  0
BLOCK
  5
3E3
330
3E2
100
AcDbEntity
  8
0
100
AcDbBlockBegin
  2
*D26
 70
     1
 10
0.0
 20
0.0
 30
0.0
  3
*D26
  1

  0
LINE
  5
3E5
330
3E2
100
AcDbEntity
  8
0
 62
     0
370
    -2
100
AcDbLine
 10
155.2192082740828
 20
169.7621854827355
 30
0.0
 11
155.2192082740828
 21
197.9420231589484
 31
0.0
  0
LINE
  5
3E6
330
3E2
100
AcDbEntity
  8
0
 62
     0
370
    -2
100
AcDbLine
 10
187.7312082740828
 20
169.7621854827355
 30
0.0
 11
187.7312082740828
 21
197.9420231589484
 31
0.0
  0
LINE
  5
3E7
330
3E2
100
AcDbEntity
  8
0
 62
     0
370
    -2
100
AcDbLine
 10
158.5212082740828
 20
196.9420231589484
 30
0.0
 11
184.4292082740828
 21
196.9420231589484
 31
0.0
  0
LINE
  5
3E8
330
3E2
100
AcDbEntity
  8
0
 62
     0
370
    -2
100
AcDbLine
 10
184.4292082740828
 20
196.9420231589484
 30
0.0
 11
158.5212082740828
 21
196.9420231589484
 31
0.0
  0
SOLID
  5
3E9
330
3E2
100
AcDbEntity
  8
0
 62
     0
100
AcDbTrace
 10
158.5212082740828
 20
197.4923564922818
 30
0.0
 11
158.5212082740828
 21
196.3916898256151
 31
0.0
 12
155.2192082740828
 22
196.9420231589484
 32
0.0
 13
155.2192082740828
 23
196.9420231589484
 33
0.0
  0
SOLID
  5
3EA
330
3E2
100
AcDbEntity
  8
0
 62
     0
100
AcDbTrace
 10
184.4292082740828
 20
196.3916898256151
 30
0.0
 11
184.4292082740828
 21
197.4923564922818
 31
0.0
 12
187.7312082740828
 22
196.9420231589484
 32
0.0
 13
187.7312082740828
 23
196.9420231589484
 33
0.0
  0
MTEXT
  5
3EB
330
3E2
100
AcDbEntity
  8
0
 62
     0
100
AcDbMText
 10
171.4752082740828
 20
200.5076898256151
 30
0.0
 40
3.5
 41
0.0
 46
0.0
 71
     5
 72
     1
  1
32,5
 73
     1
 44
1.0
  0
POINT
  5
3EC
330
3E2
100
AcDbEntity
  8
Defpoints
 62
     0
100
AcDbPoint
 10
155.2192082740828
 20
168.7621854827355
 30
0.0
  0
POINT
  5
3ED
330
3E2
100
AcDbEntity
  8
Defpoints
 62
     0
100
AcDbPoint
 10
187.7312082740828
 20
168.7621854827355
 30
0.0
  0
POINT
  5
3EE
330
3E2
100
AcDbEntity
  8
Defpoints
 62
     0
100
AcDbPoint
 10
187.7312082740828
 20
196.9420231589484
 30
0.0
  0
ENDBLK
  5
3E4
330
3E2
100
AcDbEntity
  8
0
100
AcDbBlockEnd
  0
BLOCK
  5
3F3
330
3F2
100
AcDbEntity
  8
0
100
AcDbBlockBegin
  2
*D27
 70
     1
 10
0.0
 20
0.0
 30
0.0
  3
*D27
  1

  0
LINE
  5
3F5
330
3F2
100
AcDbEntity
  8
0
 62
     0
370
    -2
100
AcDbLine
 10
187.7312082740828
 20
169.7621854827355
 30
0.0
 11
187.7312082740828
 21
197.9818790518309
 31
0.0
  0
LINE
  5
3F6
330
3F2
100
AcDbEntity
  8
0
 62
     0
370
    -2
100
AcDbLine
 10
198.9072090310028
 20
175.3504582472395
 30
0.0
 11
198.9072090310028
 21
197.9818790518309
 31
0.0
  0
LINE
  5
3F7
330
3F2
100
AcDbEntity
  8
0
 62
     0
370
    -2
100
AcDbLine
 10
198.9072090310028
 20
196.9818790518309
 30
0.0
 11
233.8405423643361
 21
196.9818790518309
 31
0.0
  0
LINE
  5
3F8
330
3F2
100
AcDbEntity
  8
0
 62
     0
370
    -2
100
AcDbLine
 10
191.0332082740828
 20
196.9818790518309
 30
0.0
 11
195.6052090310028
 21
196.9818790518309
 31
0.0
  0
LINE
  5
3F9
330
3F2
100
AcDbEntity
  8
0
 62
     0
370
    -2
100
AcDbLine
 10
195.6052090310028
 20
196.9818790518309
 30
0.0
 11
191.0332082740828
 21
196.9818790518309
 31
0.0
  0
SOLID
  5
3FA
330
3F2
100
AcDbEntity
  8
0
 62
     0
100
AcDbTrace
 10
191.0332082740828
 20
197.5322123851643
 30
0.0
 11
191.0332082740828
 21
196.4315457184976
 31
0.0
 12
187.7312082740828
 22
196.9818790518309
 32
0.0
 13
187.7312082740828
 23
196.9818790518309
 33
0.0
  0
SOLID
  5
3FB
330
3F2
100
AcDbEntity
  8
0
 62
     0
100
AcDbTrace
 10
195.6052090310028
 20
196.4315457184976
 30
0.0
 11
195.6052090310028
 21
197.5322123851643
 31
0.0
 12
198.9072090310028
 22
196.9818790518309
 32
0.0
 13
198.9072090310028
 23
196.9818790518309
 33
0.0
  0
MTEXT
  5
3FC
330
3F2
100
AcDbEntity
  8
0
 62
     0
100
AcDbMText
 10
218.0248756976695
 20
200.2558790518309
 30
0.0
 40
3.5
 41
0.0
 46
0.0
 71
     5
 72
     1
  1
11.2(0.441")
 73
     1
 44
1.0
  0
POINT
  5
3FD
330
3F2
100
AcDbEntity
  8
Defpoints
 62
     0
100
AcDbPoint
 10
187.7312082740828
 20
168.7621854827355
 30
0.0
  0
POINT
  5
3FE
330
3F2
100
AcDbEntity
  8
Defpoints
 62
     0
100
AcDbPoint
 10
198.9072090310028
 20
174.3504582472395
 30
0.0
  0
POINT
  5
3FF
330
3F2
100
AcDbEntity
  8
Defpoints
 62
     0
100
AcDbPoint
 10
198.9072090310028
 20
196.9818790518309
 30
0.0
  0
ENDBLK
  5
3F4
330
3F2
100
AcDbEntity
  8
0
100
AcDbBlockEnd
  0
BLOCK
  5
404
330
403
100
AcDbEntity
  8
0
100
AcDbBlockBegin
  2
*D28
 70
     1
 10
0.0
 20
0.0
 30
0.0
  3
*D28
  1

  0
LINE
  5
406
330
403
100
AcDbEntity
  8
0
 62
     0
370
    -2
100
AcDbLine
 10
149.0101906279581
 20
175.6596516953743
 30
0.0
 11
102.0630272773111
 21
175.6596516953743
 31
0.0
  0
LINE
  5
407
330
403
100
AcDbEntity
  8
0
 62
     0
370
    -2
100
AcDbLine
 10
149.0101906279581
 20
150.6596516953743
 30
0.0
 11
102.0630272773111
 21
150.6596516953743
 31
0.0
  0
LINE
  5
408
330
403
100
AcDbEntity
  8
0
 62
     0
370
    -2
100
AcDbLine
 10
103.0630272773111
 20
172.3576516953743
 30
0.0
 11
103.0630272773111
 21
168.4151713466403
 31
0.0
  0
LINE
  5
409
330
403
100
AcDbEntity
  8
0
 62
     0
370
    -2
100
AcDbLine
 10
103.0630272773111
 20
153.9616516953743
 30
0.0
 11
103.0630272773111
 21
161.8671713466403
 31
0.0
  0
SOLID
  5
40A
330
403
100
AcDbEntity
  8
0
 62
     0
100
AcDbTrace
 10
103.6133606106444
 20
172.3576516953743
 30
0.0
 11
102.5126939439778
 21
172.3576516953743
 31
0.0
 12
103.0630272773111
 22
175.6596516953743
 32
0.0
 13
103.0630272773111
 23
175.6596516953743
 33
0.0
  0
SOLID
  5
40B
330
403
100
AcDbEntity
  8
0
 62
     0
100
AcDbTrace
 10
102.5126939439778
 20
153.9616516953743
 30
0.0
 11
103.6133606106444
 21
153.9616516953743
 31
0.0
 12
103.0630272773111
 22
150.6596516953743
 32
0.0
 13
103.0630272773111
 23
150.6596516953743
 33
0.0
  0
MTEXT
  5
40C
330
403
100
AcDbEntity
  8
0
 62
     0
100
AcDbMText
 10
103.0630272773111
 20
165.1411713466403
 30
0.0
 40
3.5
 41
0.0
 46
0.0
 71
     5
 72
     1
  1
25
 73
     1
 44
1.0
  0
POINT
  5
40D
330
403
100
AcDbEntity
  8
Defpoints
 62
     0
100
AcDbPoint
 10
150.0101906279581
 20
175.6596516953743
 30
0.0
  0
POINT
  5
40E
330
403
100
AcDbEntity
  8
Defpoints
 62
     0
100
AcDbPoint
 10
150.0101906279581
 20
150.6596516953743
 30
0.0
  0
POINT
  5
40F
330
403
100
AcDbEntity
  8
Defpoints
 62
     0
100
AcDbPoint
 10
103.0630272773111
 20
150.6596516953743
 30
0.0
  0
ENDBLK
  5
405
330
403
100
AcDbEntity
  8
0
100
AcDbBlockEnd
  0
BLOCK
  5
414
330
413
100
AcDbEntity
  8
0
100
AcDbBlockBegin
  2
*D29
 70
     1
 10
0.0
 20
0.0
 30
0.0
  3
*D29
  1

  0
LINE
  5
416
330
413
100
AcDbEntity
  8
0
 62
     0
370
    -2
100
AcDbLine
 10
115.2126197444949
 20
137.8709174861271
 30
0.0
 11
126.0699530778282
 21
137.8709174861271
 31
0.0
  0
LINE
  5
417
330
413
100
AcDbEntity
  8
0
 62
     0
370
    -2
100
AcDbLine
 10
126.0699530778282
 20
137.8709174861271
 30
0.0
 11
126.0699530778282
 21
150.6596515908743
 31
0.0
  0
LINE
  5
418
330
413
100
AcDbEntity
  8
0
 62
     0
370
    -2
100
AcDbLine
 10
154.5101906279581
 20
168.6593823171743
 30
0.0
 11
125.0699530778282
 21
168.6593823171743
 31
0.0
  0
LINE
  5
419
330
413
100
AcDbEntity
  8
0
 62
     0
370
    -2
100
AcDbLine
 10
149.0101906409581
 20
150.6596515908743
 30
0.0
 11
125.0699530778282
 21
150.6596515908743
 31
0.0
  0
LINE
  5
41A
330
413
100
AcDbEntity
  8
0
 62
     0
370
    -2
100
AcDbLine
 10
126.0699530778282
 20
165.3573823171743
 30
0.0
 11
126.0699530778282
 21
153.9616515908743
 31
0.0
  0
LINE
  5
41B
330
413
100
AcDbEntity
  8
0
 62
     0
370
    -2
100
AcDbLine
 10
126.0699530778282
 20
153.9616515908743
 30
0.0
 11
126.0699530778282
 21
165.3573823171743
 31
0.0
  0
SOLID
  5
41C
330
413
100
AcDbEntity
  8
0
 62
     0
100
AcDbTrace
 10
126.6202864111616
 20
165.3573823171743
 30
0.0
 11
125.5196197444949
 21
165.3573823171743
 31
0.0
 12
126.0699530778282
 22
168.6593823171743
 32
0.0
 13
126.0699530778282
 23
168.6593823171743
 33
0.0
  0
SOLID
  5
41D
330
413
100
AcDbEntity
  8
0
 62
     0
100
AcDbTrace
 10
125.5196197444949
 20
153.9616515908743
 30
0.0
 11
126.6202864111616
 21
153.9616515908743
 31
0.0
 12
126.0699530778282
 22
150.6596515908743
 32
0.0
 13
126.0699530778282
 23
150.6596515908743
 33
0.0
  0
MTEXT
  5
41E
330
413
100
AcDbEntity
  8
0
 62
     0
100
AcDbMText
 10
119.8792864111616
 20
141.4365841527938
 30
0.0
 40
3.5
 41
0.0
 46
0.0
 71
     5
 72
     1
  1
18,0
 73
     1
 44
1.0
  0
POINT
  5
41F
330
413
100
AcDbEntity
  8
Defpoints
 62
     0
100
AcDbPoint
 10
155.5101906279581
 20
168.6593823171743
 30
0.0
  0
POINT
  5
4B6
330
413
100
AcDbEntity
  8
Defpoints
 62
     0
100
AcDbPoint
 10
150.0101906409581
 20
150.6596515908743
 30
0.0
  0
POINT
  5
4B7
330
413
100
AcDbEntity
  8
Defpoints
 62
     0
100
AcDbPoint
 10
126.0699530778282
 20
150.6596515908743
 30
0.0
  0
ENDBLK
  5
415
330
413
100
AcDbEntity
  8
0
100
AcDbBlockEnd
  0
BLOCK
  5
43C
330
43B
100
AcDbEntity
  8
0
100
AcDbBlockBegin
  2
*D30
 70
     1
 10
0.0
 20
0.0
 30
0.0
  3
*D30
  1

  0
LINE
  5
43E
330
43B
100
AcDbEntity
  8
0
 62
     0
370
    -2
100
AcDbLine
 10
312.2883344724767
 20
164.9679475670878
 30
0.0
 11
321.7472123237526
 21
164.9679475670878
 31
0.0
  0
LINE
  5
43F
330
43B
100
AcDbEntity
  8
0
 62
     0
370
    -2
100
AcDbLine
 10
312.2883344724767
 20
169.3679475670878
 30
0.0
 11
321.7472123237526
 21
169.3679475670878
 31
0.0
  0
LINE
  5
440
330
43B
100
AcDbEntity
  8
0
 62
     0
370
    -2
100
AcDbLine
 10
320.7472123237526
 20
175.9719475670877
 30
0.0
 11
329.854545657086
 21
175.9719475670877
 31
0.0
  0
LINE
  5
441
330
43B
100
AcDbEntity
  8
0
 62
     0
370
    -2
100
AcDbLine
 10
320.7472123237526
 20
164.9679475670878
 30
0.0
 11
320.7472123237526
 21
169.3679475670878
 31
0.0
  0
LINE
  5
442
330
43B
100
AcDbEntity
  8
0
 62
     0
370
    -2
100
AcDbLine
 10
320.7472123237526
 20
169.3679475670878
 30
0.0
 11
320.7472123237526
 21
164.9679475670878
 31
0.0
  0
LINE
  5
443
330
43B
100
AcDbEntity
  8
0
 62
     0
370
    -2
100
AcDbLine
 10
320.7472123237526
 20
161.6659475670878
 30
0.0
 11
320.7472123237526
 21
158.3639475670878
 31
0.0
  0
LINE
  5
444
330
43B
100
AcDbEntity
  8
0
 62
     0
370
    -2
100
AcDbLine
 10
320.7472123237526
 20
172.6699475670877
 30
0.0
 11
320.7472123237526
 21
175.9719475670877
 31
0.0
  0
SOLID
  5
445
330
43B
100
AcDbEntity
  8
0
 62
     0
100
AcDbTrace
 10
321.2975456570859
 20
161.6659475670878
 30
0.0
 11
320.1968789904192
 21
161.6659475670878
 31
0.0
 12
320.7472123237526
 22
164.9679475670878
 32
0.0
 13
320.7472123237526
 23
164.9679475670878
 33
0.0
  0
SOLID
  5
446
330
43B
100
AcDbEntity
  8
0
 62
     0
100
AcDbTrace
 10
320.1968789904192
 20
172.6699475670877
 30
0.0
 11
321.2975456570859
 21
172.6699475670877
 31
0.0
 12
320.7472123237526
 22
169.3679475670878
 32
0.0
 13
320.7472123237526
 23
169.3679475670878
 33
0.0
  0
MTEXT
  5
447
330
43B
100
AcDbEntity
  8
0
 62
     0
100
AcDbMText
 10
326.0628789904193
 20
179.5376142337544
 30
0.0
 40
3.5
 41
0.0
 46
0.0
 71
     5
 72
     1
  1
4,4
 73
     1
 44
1.0
  0
POINT
  5
448
330
43B
100
AcDbEntity
  8
Defpoints
 62
     0
100
AcDbPoint
 10
311.2883344724767
 20
164.9679475670878
 30
0.0
  0
POINT
  5
449
330
43B
100
AcDbEntity
  8
Defpoints
 62
     0
100
AcDbPoint
 10
311.2883344724767
 20
169.3679475670878
 30
0.0
  0
POINT
  5
44A
330
43B
100
AcDbEntity
  8
Defpoints
 62
     0
100
AcDbPoint
 10
320.7472123237526
 20
169.3679475670878
 30
0.0
  0
ENDBLK
  5
43D
330
43B
100
AcDbEntity
  8
0
100
AcDbBlockEnd
  0
BLOCK
  5
44F
330
44E
100
AcDbEntity
  8
0
100
AcDbBlockBegin
  2
*D31
 70
     1
 10
0.0
 20
0.0
 30
0.0
  3
*D31
  1

  0
LINE
  5
451
330
44E
100
AcDbEntity
  8
0
 62
     0
370
    -2
100
AcDbLine
 10
286.5956841803357
 20
189.8693315217814
 30
0.0
 11
307.5290175136691
 21
189.8693315217814
 31
0.0
  0
LINE
  5
452
330
44E
100
AcDbEntity
  8
0
 62
     0
370
    -2
100
AcDbLine
 10
283.3057977565123
 20
171.8596516953743
 30
0.0
 11
283.3057977565123
 21
191.1519112775011
 31
0.0
  0
LINE
  5
453
330
44E
100
AcDbEntity
  8
0
 62
     0
370
    -2
100
AcDbLine
 10
280.6503792305444
 20
173.914361275597
 30
0.0
 11
269.9928776390389
 21
186.1744144063728
 31
0.0
  0
ARC
  5
454
330
44E
100
AcDbEntity
  8
0
 62
     0
370
    -2
100
AcDbCircle
 10
283.3057977565123
 20
170.8596516953743
 30
0.0
 40
19.29225958212688
100
AcDbArc
 50
80.18143232858132
 51
90.0
  0
ARC
  5
455
330
44E
100
AcDbEntity
  8
0
 62
     0
370
    -2
100
AcDbCircle
 10
283.3057977565123
 20
170.8596516953743
 30
0.0
 40
19.29225958212688
100
AcDbArc
 50
99.81856767141866
 51
121.1814323285812
  0
SOLID
  5
456
330
44E
100
AcDbEntity
  8
0
 62
     0
100
AcDbTrace
 10
280.0630079586422
 20
189.3210171178108
 30
0.0
 11
279.9688147067356
 21
190.4176459257519
 31
0.0
 12
283.3057977565123
 22
190.1519112775011
 32
0.0
 13
283.3057977565123
 23
190.1519112775011
 33
0.0
  0
SOLID
  5
457
330
44E
100
AcDbEntity
  8
0
 62
     0
100
AcDbTrace
 10
272.9930521294363
 20
187.8095151703763
 30
0.0
 11
273.6414168107309
 21
186.9200825696915
 31
0.0
 12
270.6489366680294
 22
185.41970482615
 32
0.0
 13
270.6489366680294
 23
185.41970482615
 33
0.0
  0
MTEXT
  5
458
330
44E
100
AcDbEntity
  8
0
 62
     0
100
AcDbMText
 10
298.7133508470024
 20
193.434998188448
 30
0.0
 40
3.5
 41
0.0
 46
0.0
 71
     5
 72
     1
  1
41,00%%d
 73
     1
 44
1.0
  0
POINT
  5
459
330
44E
100
AcDbEntity
  8
Defpoints
 62
     0
100
AcDbPoint
 10
274.4474393463656
 20
187.9979353335204
 30
0.0
  0
POINT
  5
45A
330
44E
100
AcDbEntity
  8
Defpoints
 62
     0
100
AcDbPoint
 10
281.306438259535
 20
173.1596516953743
 30
0.0
  0
POINT
  5
45B
330
44E
100
AcDbEntity
  8
Defpoints
 62
     0
100
AcDbPoint
 10
283.3057977565123
 20
170.8596516953743
 30
0.0
  0
POINT
  5
45C
330
44E
100
AcDbEntity
  8
Defpoints
 62
     0
100
AcDbPoint
 10
283.3057977565123
 20
166.4596516953743
 30
0.0
  0
POINT
  5
45D
330
44E
100
AcDbEntity
  8
Defpoints
 62
     0
100
AcDbPoint
 10
283.3057977565123
 20
170.8596516953743
 30
0.0
  0
ENDBLK
  5
450
330
44E
100
AcDbEntity
  8
0
100
AcDbBlockEnd
  0
BLOCK
  5
462
330
461
100
AcDbEntity
  8
0
100
AcDbBlockBegin
  2
*D32
 70
     1
 10
0.0
 20
0.0
 30
0.0
  3
*D32
  1

  0
LINE
  5
464
330
461
100
AcDbEntity
  8
0
 62
     0
370
    -2
100
AcDbLine
 10
260.6359894166154
 20
130.5380455587194
 30
0.0
 11
269.1599894166154
 21
130.5380455587194
 31
0.0
  0
LINE
  5
465
330
461
100
AcDbEntity
  8
0
 62
     0
370
    -2
100
AcDbLine
 10
269.1599894166154
 20
130.5380455587194
 30
0.0
 11
269.1599894166154
 21
162.6679475670878
 31
0.0
  0
LINE
  5
466
330
461
100
AcDbEntity
  8
0
 62
     0
370
    -2
100
AcDbLine
 10
305.2883344724767
 20
162.6679475670878
 30
0.0
 11
268.1599894166154
 21
162.6679475670878
 31
0.0
  0
LINE
  5
467
330
461
100
AcDbEntity
  8
0
 62
     0
370
    -2
100
AcDbLine
 10
305.2883344724767
 20
171.6679475670878
 30
0.0
 11
268.1599894166154
 21
171.6679475670878
 31
0.0
  0
LINE
  5
468
330
461
100
AcDbEntity
  8
0
 62
     0
370
    -2
100
AcDbLine
 10
269.1599894166154
 20
162.6679475670878
 30
0.0
 11
269.1599894166154
 21
171.6679475670878
 31
0.0
  0
LINE
  5
469
330
461
100
AcDbEntity
  8
0
 62
     0
370
    -2
100
AcDbLine
 10
269.1599894166154
 20
171.6679475670878
 30
0.0
 11
269.1599894166154
 21
162.6679475670878
 31
0.0
  0
LINE
  5
46A
330
461
100
AcDbEntity
  8
0
 62
     0
370
    -2
100
AcDbLine
 10
269.1599894166154
 20
174.9699475670878
 30
0.0
 11
269.1599894166154
 21
178.2719475670878
 31
0.0
  0
SOLID
  5
46B
330
461
100
AcDbEntity
  8
0
 62
     0
100
AcDbTrace
 10
269.7103227499487
 20
159.3659475670878
 30
0.0
 11
268.609656083282
 21
159.3659475670878
 31
0.0
 12
269.1599894166154
 22
162.6679475670878
 32
0.0
 13
269.1599894166154
 23
162.6679475670878
 33
0.0
  0
SOLID
  5
46C
330
461
100
AcDbEntity
  8
0
 62
     0
100
AcDbTrace
 10
268.609656083282
 20
174.9699475670878
 30
0.0
 11
269.7103227499487
 21
174.9699475670878
 31
0.0
 12
269.1599894166154
 22
171.6679475670878
 32
0.0
 13
269.1599894166154
 23
171.6679475670878
 33
0.0
  0
MTEXT
  5
46D
330
461
100
AcDbEntity
  8
0
 62
     0
100
AcDbMText
 10
264.1359894166154
 20
134.1037122253861
 30
0.0
 40
3.5
 41
0.0
 46
0.0
 71
     5
 72
     1
  1
9,0
 73
     1
 44
1.0
  0
POINT
  5
46E
330
461
100
AcDbEntity
  8
Defpoints
 62
     0
100
AcDbPoint
 10
306.2883344724767
 20
162.6679475670878
 30
0.0
  0
POINT
  5
46F
330
461
100
AcDbEntity
  8
Defpoints
 62
     0
100
AcDbPoint
 10
306.2883344724767
 20
171.6679475670878
 30
0.0
  0
POINT
  5
4A7
330
461
100
AcDbEntity
  8
Defpoints
 62
     0
100
AcDbPoint
 10
269.1599894166154
 20
171.6679475670878
 30
0.0
  0
ENDBLK
  5
463
330
461
100
AcDbEntity
  8
0
100
AcDbBlockEnd
  0
BLOCK
  5
489
330
488
100
AcDbEntity
  8
0
100
AcDbBlockBegin
  2
*D33
 70
     1
 10
0.0
 20
0.0
 30
0.0
  3
*D33
  1

  0
LINE
  5
48B
330
488
100
AcDbEntity
  8
0
 62
     0
370
    -2
100
AcDbLine
 10
309.684181809085
 20
170.3679475670878
 30
0.0
 11
309.684181809085
 21
187.888567589462
 31
0.0
  0
LINE
  5
48C
330
488
100
AcDbEntity
  8
0
 62
     0
370
    -2
100
AcDbLine
 10
306.2836248922539
 20
172.3240065960783
 30
0.0
 11
295.7064924465334
 21
181.5185675552688
 31
0.0
  0
ARC
  5
48D
330
488
100
AcDbEntity
  8
0
 62
     0
370
    -2
100
AcDbCircle
 10
309.684181809085
 20
169.3679475670878
 30
0.0
 40
17.52062002237427
100
AcDbArc
 50
68.37156685225419
 51
79.18578342612709
  0
ARC
  5
48E
330
488
100
AcDbEntity
  8
0
 62
     0
370
    -2
100
AcDbCircle
 10
309.684181809085
 20
169.3679475670878
 30
0.0
 40
17.52062002237427
100
AcDbArc
 50
149.814216573873
 51
160.6284331477459
  0
ARC
  5
48F
330
488
100
AcDbEntity
  8
0
 62
     0
370
    -2
100
AcDbCircle
 10
309.684181809085
 20
169.3679475670878
 30
0.0
 40
17.52062002237427
100
AcDbArc
 50
90.0
 51
139.0000000000001
  0
SOLID
  5
490
330
488
100
AcDbEntity
  8
0
 62
     0
100
AcDbTrace
 10
313.0233477532279
 20
187.1252986082451
 30
0.0
 11
312.9196299245011
 21
186.0295295983186
 31
0.0
 12
309.684181809085
 22
186.888567589462
 32
0.0
 13
309.684181809085
 23
186.888567589462
 33
0.0
  0
SOLID
  5
491
330
488
100
AcDbEntity
  8
0
 62
     0
100
AcDbTrace
 10
294.9868812794983
 20
177.8571052069244
 30
0.0
 11
294.0918488919921
 21
178.4977175205947
 31
0.0
 12
296.4612020267562
 22
180.8625085262782
 32
0.0
 13
296.4612020267562
 23
180.8625085262782
 33
0.0
  0
MTEXT
  5
492
330
488
100
AcDbEntity
  8
0
 62
     0
100
AcDbMText
 10
301.2192712563044
 20
187.9820067358735
 30
0.0
 40
3.5
 41
0.0
 46
0.0
 71
     5
 72
     1
  1
49%%d
 73
     1
 44
1.0
  0
POINT
  5
493
330
488
100
AcDbEntity
  8
Defpoints
 62
     0
100
AcDbPoint
 10
300.22741562429
 20
184.1172424415738
 30
0.0
  0
POINT
  5
494
330
488
100
AcDbEntity
  8
Defpoints
 62
     0
100
AcDbPoint
 10
309.684181809085
 20
169.3679475670878
 30
0.0
  0
POINT
  5
495
330
488
100
AcDbEntity
  8
Defpoints
 62
     0
100
AcDbPoint
 10
309.684181809085
 20
169.3679475670878
 30
0.0
  0
POINT
  5
496
330
488
100
AcDbEntity
  8
Defpoints
 62
     0
100
AcDbPoint
 10
309.684181809085
 20
164.9679475670878
 30
0.0
  0
POINT
  5
497
330
488
100
AcDbEntity
  8
Defpoints
 62
     0
100
AcDbPoint
 10
307.0383344724767
 20
171.6679475670878
 30
0.0
  0
ENDBLK
  5
48A
330
488
100
AcDbEntity
  8
0
100
AcDbBlockEnd
  0
ENDSEC
  0
SECTION
  2
ENTITIES
  0
LINE
  5
42
330
1F
100
AcDbEntity
  8
TITLE_BLOCK
370
    30
100
AcDbLine
 10
153.1556881168
 20
47.2021256655
 30
0.0
 11
415.1556881168
 21
47.2021256655
 31
0.0
  0
LINE
  5
43
330
1F
100
AcDbEntity
  8
TITLE_BLOCK
 62
     7
100
AcDbLine
 10
309.3778215674
 20
11.1216675118
 30
0.0
 11
295.9689608911
 21
11.1216675118
 31
0.0
  0
LINE
  5
44
330
1F
100
AcDbEntity
  8
TITLE_BLOCK
 62
     7
370
    30
100
AcDbLine
 10
153.1556881168
 20
47.2021256655
 30
0.0
 11
153.1556881168
 21
5.2021256655
 31
0.0
  0
LINE
  5
45
330
1F
100
AcDbEntity
  8
TITLE_BLOCK
100
AcDbLine
 10
400.1556881168
 20
5.2021256655
 30
0.0
 11
400.1556881168
 21
17.2021256655
 31
0.0
  0
LINE
  5
46
330
1F
100
AcDbEntity
  8
TITLE_BLOCK
370
    30
100
AcDbLine
 10
415.1556881168
 20
292.2021256655
 30
0.0
 11
5.1556881168
 21
292.2021256655
 31
0.0
  0
LINE
  5
47
330
1F
100
AcDbEntity
  8
TITLE_BLOCK
370
    30
100
AcDbLine
 10
5.1556881168
 20
292.2021256655
 30
0.0
 11
5.1556881168
 21
5.2021256655
 31
0.0
  0
LINE
  5
48
330
1F
100
AcDbEntity
  8
TITLE_BLOCK
370
    30
100
AcDbLine
 10
5.1556881168
 20
5.2021256655
 30
0.0
 11
415.1556881168
 21
5.2021256655
 31
0.0
  0
LINE
  5
49
330
1F
100
AcDbEntity
  8
TITLE_BLOCK
370
    30
100
AcDbLine
 10
415.1556881168
 20
5.2021256655
 30
0.0
 11
415.1556881168
 21
292.2021256655
 31
0.0
  0
LINE
  5
4A
330
1F
100
AcDbEntity
  8
TITLE_BLOCK
100
AcDbLine
 10
343.1556881168
 20
5.2021256655
 30
0.0
 11
343.1556881168
 21
17.2021256655
 31
0.0
  0
LINE
  5
4B
330
1F
100
AcDbEntity
  8
TITLE_BLOCK
100
AcDbLine
 10
228.1556881168
 20
17.2021256655
 30
0.0
 11
228.1556881168
 21
47.2021256655
 31
0.0
  0
LINE
  5
4C
330
1F
100
AcDbEntity
  8
TITLE_BLOCK
100
AcDbLine
 10
322.1556881168
 20
17.2021256655
 30
0.0
 11
322.1556881168
 21
47.2021256655
 31
0.0
  0
LINE
  5
4D
330
1F
100
AcDbEntity
  8
SLD-0
 62
     7
100
AcDbLine
 10
211.7527938281
 20
17.2021256655
 30
0.0
 11
415.1556881168
 21
17.2021256655
 31
0.0
  0
LINE
  5
4E
330
1F
100
AcDbEntity
  8
TITLE_BLOCK
100
AcDbLine
 10
322.1556881168
 20
5.2021256655
 30
0.0
 11
322.1556881168
 21
17.2021256655
 31
0.0
  0
LINE
  5
4F
330
1F
100
AcDbEntity
  8
SLD-0
 62
     7
100
AcDbLine
 10
322.1556881168
 20
11.2021256655
 30
0.0
 11
343.1556881168
 21
11.2021256655
 31
0.0
  0
LINE
  5
50
330
1F
100
AcDbEntity
  8
TITLE_BLOCK
100
AcDbLine
 10
322.1556881168
 20
37.2021256655
 30
0.0
 11
415.1556881168
 21
37.2021256655
 31
0.0
  0
LINE
  5
51
330
1F
100
AcDbEntity
  8
TITLE_BLOCK
100
AcDbLine
 10
295.1556881168
 20
32.4021256655
 30
0.0
 11
295.1556881168
 21
5.2021256655
 31
0.0
  0
LINE
  5
52
330
1F
100
AcDbEntity
  8
TITLE_BLOCK
100
AcDbLine
 10
211.7527938281
 20
5.2021256655
 30
0.0
 11
211.7527938281
 21
47.2021256655
 31
0.0
  0
LINE
  5
53
330
1F
100
AcDbEntity
  8
TITLE_BLOCK
100
AcDbLine
 10
308.5692233271
 20
13.2855364279
 30
0.0
 11
308.5692233271
 21
9.1691859091
 31
0.0
  0
LINE
  5
54
330
1F
100
AcDbEntity
  8
TITLE_BLOCK
100
AcDbLine
 10
308.5692233271
 20
9.1691859091
 30
0.0
 11
302.8490760152
 21
10.3533894575
 31
0.0
  0
LINE
  5
55
330
1F
100
AcDbEntity
  8
TITLE_BLOCK
100
AcDbLine
 10
302.8490760152
 20
10.3533894575
 30
0.0
 11
302.8490760152
 21
12.1013328795
 31
0.0
  0
LINE
  5
56
330
1F
100
AcDbEntity
  8
TITLE_BLOCK
100
AcDbLine
 10
302.8490760152
 20
12.1013328795
 30
0.0
 11
308.5692233271
 21
13.2855364279
 31
0.0
  0
LINE
  5
57
330
1F
100
AcDbEntity
  8
TITLE_BLOCK
100
AcDbLine
 10
298.9091897476
 20
14.3426298
 30
0.0
 11
298.9091897476
 21
8.2015611228
 31
0.0
  0
LINE
  5
58
330
1F
100
AcDbEntity
  8
TITLE_BLOCK
100
AcDbLine
 10
273.1556881168
 20
47.2021256655
 30
0.0
 11
273.1556881168
 21
17.2021256655
 31
0.0
  0
LINE
  5
59
330
1F
100
AcDbEntity
  8
TITLE_BLOCK
100
AcDbLine
 10
310.1556881168
 20
17.2021256655
 30
0.0
 11
310.1556881168
 21
5.2021256655
 31
0.0
  0
LINE
  5
5A
330
1F
100
AcDbEntity
  8
0
  6
Continuous
 62
     7
370
     0
100
AcDbLine
 10
275.660957468
 20
41.4116909285
 30
0.0
 11
275.660957468
 21
43.4417925541
 31
0.0
  0
LINE
  5
5B
330
1F
100
AcDbEntity
  8
0
  6
Continuous
 62
     7
370
     0
100
AcDbLine
 10
277.8292670264
 20
37.5932079035
 30
0.0
 11
275.0651420264
 21
37.5932079035
 31
0.0
  0
LINE
  5
5C
330
1F
100
AcDbEntity
  8
0
  6
Continuous
 62
     7
370
     0
100
AcDbLine
 10
279.6759560773
 20
36.342478705
 30
0.0
 11
279.6759560773
 21
33.4296707178
 31
0.0
  0
LINE
  5
5D
330
1F
100
AcDbEntity
  8
0
  6
Continuous
 62
     7
370
     0
100
AcDbLine
 10
284.2184118314
 20
36.342478705
 30
0.0
 11
284.5289473921
 21
36.342478705
 31
0.0
  0
LINE
  5
5E
330
1F
100
AcDbEntity
  8
0
  6
Continuous
 62
     7
370
     0
100
AcDbLine
 10
280.4473400304
 20
35.529123974
 30
0.0
 11
280.6474256232
 21
35.529123974
 31
0.0
  0
LINE
  5
5F
330
1F
100
AcDbEntity
  8
0
  6
Continuous
 62
     7
370
     0
100
AcDbLine
 10
284.6059984847
 20
34.1708801045
 30
0.0
 11
284.6059984847
 21
35.5677478259
 31
0.0
  0
LINE
  5
60
330
1F
100
AcDbEntity
  8
0
  6
Continuous
 62
     7
370
     0
100
AcDbLine
 10
286.3296300593
 20
34.1708801045
 30
0.0
 11
286.7136180563
 21
33.4296707178
 31
0.0
  0
LINE
  5
61
330
1F
100
AcDbEntity
  8
0
  6
Continuous
 62
     7
370
     0
100
AcDbLine
 10
288.3519982221
 20
45.9146115563
 30
0.0
 11
288.3519982221
 21
43.2703304411
 31
0.0
  0
LINE
  5
62
330
1F
100
AcDbEntity
  8
0
  6
Continuous
 62
     7
370
     0
100
AcDbLine
 10
279.8578844668
 20
41.1990659285
 30
0.0
 11
275.873582468
 21
41.1990659285
 31
0.0
  0
LINE
  5
63
330
1F
100
AcDbEntity
  8
0
  6
Continuous
 62
     7
370
     0
100
AcDbLine
 10
280.9589532277
 20
33.4296707178
 30
0.0
 11
281.7462535663
 21
33.4296707178
 31
0.0
  0
LINE
  5
64
330
1F
100
AcDbEntity
  8
0
  6
Continuous
 62
     7
370
     0
100
AcDbLine
 10
285.1585626041
 20
33.4296707178
 30
0.0
 11
285.9560356116
 21
33.4296707178
 31
0.0
  0
LINE
  5
65
330
1F
100
AcDbEntity
  8
0
  6
Continuous
 62
     7
370
     0
100
AcDbLine
 10
286.7476902199
 20
34.8693139652
 30
0.0
 11
287.4536779469
 21
36.2699898408
 31
0.0
  0
LINE
  5
66
330
1F
100
AcDbEntity
  8
0
  6
Continuous
 62
     7
370
     0
100
AcDbLine
 10
288.1393732221
 20
43.0577054411
 30
0.0
 11
283.1671174586
 21
43.0577054411
 31
0.0
  0
LINE
  5
67
330
1F
100
AcDbEntity
  8
0
  6
Continuous
 62
     7
370
     0
100
AcDbLine
 10
275.4584137563
 20
34.1785540867
 30
0.0
 11
274.8817491271
 21
34.1785540867
 31
0.0
  0
LINE
  5
68
330
1F
100
AcDbEntity
  8
0
  6
Continuous
 62
     7
370
     0
100
AcDbLine
 10
277.3908095915
 20
36.342478705
 30
0.0
 11
277.7013451523
 21
36.342478705
 31
0.0
  0
LINE
  5
69
330
1F
100
AcDbEntity
  8
0
  6
Continuous
 62
     7
370
     0
100
AcDbLine
 10
281.8792693636
 20
36.342478705
 30
0.0
 11
281.8792693636
 21
34.2936861776
 31
0.0
  0
LINE
  5
6A
330
1F
100
AcDbEntity
  8
0
  6
Continuous
 62
     7
370
     0
100
AcDbLine
 10
286.3296300593
 20
35.6214805955
 30
0.0
 11
285.9936659301
 21
36.2699898408
 31
0.0
  0
LINE
  5
6B
330
1F
100
AcDbEntity
  8
0
  6
Continuous
 62
     7
370
     0
100
AcDbLine
 10
279.4774381482
 20
36.342478705
 30
0.0
 11
278.7230700176
 21
36.342478705
 31
0.0
  0
LINE
  5
6C
330
1F
100
AcDbEntity
  8
0
  6
Continuous
 62
     7
370
     0
100
AcDbLine
 10
277.3908095915
 20
33.4296707178
 30
0.0
 11
277.7013451523
 21
33.4296707178
 31
0.0
  0
LINE
  5
6D
330
1F
100
AcDbEntity
  8
0
  6
Continuous
 62
     7
370
     0
100
AcDbLine
 10
280.1443258358
 20
40.6915821273
 30
0.0
 11
283.2397027358
 21
42.4925354228
 31
0.0
  0
LINE
  5
6E
330
1F
100
AcDbEntity
  8
0
  6
Continuous
 62
     7
370
     0
100
AcDbLine
 10
277.7783962449
 20
34.1708801045
 30
0.0
 11
277.7783962449
 21
35.5677478259
 31
0.0
  0
LINE
  5
6F
330
1F
100
AcDbEntity
  8
0
  6
Continuous
 62
     7
370
     0
100
AcDbLine
 10
282.8530031312
 20
34.2184230075
 30
0.0
 11
283.2933252358
 21
34.2184230075
 31
0.0
  0
LINE
  5
70
330
1F
100
AcDbEntity
  8
0
  6
Continuous
 62
     7
370
     0
100
AcDbLine
 10
279.4774381482
 20
33.4296707178
 30
0.0
 11
279.4774381482
 21
36.342478705
 31
0.0
  0
LINE
  5
71
330
1F
100
AcDbEntity
  8
0
  6
Continuous
 62
     7
370
     0
100
AcDbLine
 10
284.1601091726
 20
34.1708801045
 30
0.0
 11
284.1601091726
 21
35.5677478259
 31
0.0
  0
LINE
  5
72
330
1F
100
AcDbEntity
  8
0
  6
Continuous
 62
     7
370
     0
100
AcDbLine
 10
276.4233351906
 20
34.1963360204
 30
0.0
 11
276.4233351906
 21
36.342478705
 31
0.0
  0
LINE
  5
73
330
1F
100
AcDbEntity
  8
0
  6
Continuous
 62
     7
370
     0
100
AcDbLine
 10
279.6759560773
 20
33.4296707178
 30
0.0
 11
280.4473400304
 21
33.4296707178
 31
0.0
  0
LINE
  5
74
330
1F
100
AcDbEntity
  8
0
  6
Continuous
 62
     7
370
     0
100
AcDbLine
 10
285.3794473921
 20
34.2801707177
 30
0.0
 11
285.3794473921
 21
35.491978705
 31
0.0
  0
LINE
  5
75
330
1F
100
AcDbEntity
  8
0
  6
Continuous
 62
     7
370
     0
100
AcDbLine
 10
284.2184118314
 20
33.4296707178
 30
0.0
 11
284.5289473921
 21
33.4296707178
 31
0.0
  0
LINE
  5
76
330
1F
100
AcDbEntity
  8
0
  6
Continuous
 62
     7
370
     0
100
AcDbLine
 10
285.1585626041
 20
36.2699898408
 30
0.0
 11
285.8841911965
 21
34.8693139652
 31
0.0
  0
LINE
  5
77
330
1F
100
AcDbEntity
  8
0
  6
Continuous
 62
     7
370
     0
100
AcDbLine
 10
286.7136180563
 20
33.4296707178
 30
0.0
 11
287.4935060945
 21
33.4296707178
 31
0.0
  0
LINE
  5
78
330
1F
100
AcDbEntity
  8
0
  6
Continuous
 62
     7
370
     0
100
AcDbLine
 10
276.4233351906
 20
36.342478705
 30
0.0
 11
275.6609615646
 21
36.342478705
 31
0.0
  0
LINE
  5
79
330
1F
100
AcDbEntity
  8
0
  6
Continuous
 62
     7
370
     0
100
AcDbLine
 10
287.5435577804
 20
42.3087535313
 30
0.0
 11
287.5435577804
 21
40.2786519057
 31
0.0
  0
LINE
  5
7A
330
1F
100
AcDbEntity
  8
0
  6
Continuous
 62
     7
370
     0
100
AcDbLine
 10
283.3466307817
 20
42.5213785313
 30
0.0
 11
287.3309327804
 21
42.5213785313
 31
0.0
  0
LINE
  5
7B
330
1F
100
AcDbEntity
  8
0
  6
Continuous
 62
     7
370
     0
100
AcDbLine
 10
281.7462535663
 20
33.4296707178
 30
0.0
 11
281.7462535663
 21
35.5315772663
 31
0.0
  0
LINE
  5
7C
330
1F
100
AcDbEntity
  8
0
  6
Continuous
 62
     7
370
     0
100
AcDbLine
 10
285.9560356116
 20
33.4296707178
 30
0.0
 11
286.3296300593
 21
34.1708801045
 31
0.0
  0
LINE
  5
7D
330
1F
100
AcDbEntity
  8
0
  6
Continuous
 62
     7
370
     0
100
AcDbLine
 10
287.4536779469
 20
36.2699898408
 30
0.0
 11
286.6565005195
 21
36.2699898408
 31
0.0
  0
LINE
  5
7E
330
1F
100
AcDbEntity
  8
0
  6
Continuous
 62
     7
370
     0
100
AcDbLine
 10
274.8817491271
 20
34.1785540867
 30
0.0
 11
274.8817491271
 21
33.4296707178
 31
0.0
  0
LINE
  5
7F
330
1F
100
AcDbEntity
  8
0
  6
Continuous
 62
     7
370
     0
100
AcDbLine
 10
286.87695766
 20
39.4194259556
 30
0.0
 11
281.6288187393
 21
38.0728771236
 31
0.0
  0
LINE
  5
80
330
1F
100
AcDbEntity
  8
0
  6
Continuous
 62
     7
370
     0
100
AcDbLine
 10
274.8525170264
 20
37.8058329035
 30
0.0
 11
274.8525170264
 21
40.4501140188
 31
0.0
  0
LINE
  5
81
330
1F
100
AcDbEntity
  8
0
  6
Continuous
 62
     7
370
     0
100
AcDbLine
 10
278.5518451523
 20
34.2801707178
 30
0.0
 11
278.5518451523
 21
35.491978705
 31
0.0
  0
LINE
  5
82
330
1F
100
AcDbEntity
  8
0
  6
Continuous
 62
     7
370
     0
100
AcDbLine
 10
282.6310226215
 20
36.342478705
 30
0.0
 11
282.6310226215
 21
34.4404035173
 31
0.0
  0
LINE
  5
83
330
1F
100
AcDbEntity
  8
0
  6
Continuous
 62
     7
370
     0
100
AcDbLine
 10
285.9936659301
 20
36.2699898408
 30
0.0
 11
285.1585626041
 21
36.2699898408
 31
0.0
  0
LINE
  5
84
330
1F
100
AcDbEntity
  8
0
  6
Continuous
 62
     7
370
     0
100
AcDbLine
 10
277.3325069327
 20
34.1708801045
 30
0.0
 11
277.7783962449
 21
34.1708801045
 31
0.0
  0
LINE
  5
85
330
1F
100
AcDbEntity
  8
0
  6
Continuous
 62
     7
370
     0
100
AcDbLine
 10
275.0651420264
 20
40.6627390188
 30
0.0
 11
280.0373977899
 21
40.6627390188
 31
0.0
  0
LINE
  5
86
330
1F
100
AcDbEntity
  8
0
  6
Continuous
 62
     7
370
     0
100
AcDbLine
 10
278.7230700176
 20
36.342478705
 30
0.0
 11
278.7230700176
 21
33.4296707178
 31
0.0
  0
LINE
  5
87
330
1F
100
AcDbEntity
  8
0
  6
Continuous
 62
     7
370
     0
100
AcDbLine
 10
283.2933252358
 20
34.2184230075
 30
0.0
 11
283.2933252358
 21
33.4296707178
 31
0.0
  0
LINE
  5
88
330
1F
100
AcDbEntity
  8
0
  6
Continuous
 62
     7
370
     0
100
AcDbLine
 10
276.3275575884
 20
44.3010185043
 30
0.0
 11
281.5756965091
 21
45.6475673362
 31
0.0
  0
LINE
  5
89
330
1F
100
AcDbEntity
  8
0
  6
Continuous
 62
     7
370
     0
100
AcDbLine
 10
280.9353521277
 20
36.342478705
 30
0.0
 11
279.6759560773
 21
36.342478705
 31
0.0
  0
LINE
  5
8A
330
1F
100
AcDbEntity
  8
0
  6
Continuous
 62
     7
370
     0
100
AcDbLine
 10
283.3679118314
 20
34.2801707178
 30
0.0
 11
283.3679118314
 21
35.491978705
 31
0.0
  0
LINE
  5
8B
330
1F
100
AcDbEntity
  8
0
  6
Continuous
 62
     7
370
     0
100
AcDbLine
 10
285.3752482221
 20
46.1272365563
 30
0.0
 11
288.1393732221
 21
46.1272365563
 31
0.0
  0
LINE
  5
8C
330
1F
100
AcDbEntity
  8
0
  6
Continuous
 62
     7
370
     0
100
AcDbLine
 10
280.4473400304
 20
33.4296707178
 30
0.0
 11
280.4473400304
 21
35.529123974
 31
0.0
  0
LINE
  5
8D
330
1F
100
AcDbEntity
  8
0
  6
Continuous
 62
     7
370
     0
100
AcDbLine
 10
284.1601091726
 20
35.5677478259
 30
0.0
 11
284.6059984847
 21
35.5677478259
 31
0.0
  0
LINE
  5
8E
330
1F
100
AcDbEntity
  8
0
  6
Continuous
 62
     7
370
     0
100
AcDbLine
 10
283.0601894127
 20
43.0288623325
 30
0.0
 11
279.9648125127
 21
41.2279090371
 31
0.0
  0
LINE
  5
8F
330
1F
100
AcDbEntity
  8
0
  6
Continuous
 62
     7
370
     0
100
AcDbLine
 10
280.9589532277
 20
35.2175963695
 30
0.0
 11
280.9589532277
 21
33.4296707178
 31
0.0
  0
LINE
  5
90
330
1F
100
AcDbEntity
  8
0
  6
Continuous
 62
     7
370
     0
100
AcDbLine
 10
285.8841911965
 20
34.8693139652
 30
0.0
 11
285.1585626041
 21
33.4296707178
 31
0.0
  0
LINE
  5
91
330
1F
100
AcDbEntity
  8
0
  6
Continuous
 62
     7
370
     0
100
AcDbLine
 10
287.4935060945
 20
33.4296707178
 30
0.0
 11
286.7476902199
 21
34.8693139652
 31
0.0
  0
LINE
  5
92
330
1F
100
AcDbEntity
  8
0
  6
Continuous
 62
     7
370
     0
100
AcDbLine
 10
275.6609615646
 20
36.342478705
 30
0.0
 11
275.6609615646
 21
34.381101895
 31
0.0
  0
LINE
  5
93
330
1F
100
AcDbEntity
  8
0
  6
Continuous
 62
     7
370
     0
100
AcDbLine
 10
276.5403095915
 20
34.2801707178
 30
0.0
 11
276.5403095915
 21
35.491978705
 31
0.0
  0
LINE
  5
94
330
1F
100
AcDbEntity
  8
0
  6
Continuous
 62
     7
370
     0
100
AcDbLine
 10
282.6310226215
 20
36.342478705
 30
0.0
 11
281.8792693636
 21
36.342478705
 31
0.0
  0
LINE
  5
95
330
1F
100
AcDbEntity
  8
0
  6
Continuous
 62
     7
370
     0
100
AcDbLine
 10
286.6565005195
 20
36.2699898408
 30
0.0
 11
286.3296300593
 21
35.6214805955
 31
0.0
  0
LINE
  5
96
330
1F
100
AcDbEntity
  8
0
  6
Continuous
 62
     7
370
     0
100
AcDbLine
 10
274.8817491271
 20
33.4296707178
 30
0.0
 11
275.656669888
 21
33.4296707178
 31
0.0
  0
LINE
  5
97
330
1F
100
AcDbEntity
  8
0
  6
Continuous
 62
     7
370
     0
100
AcDbLine
 10
277.3325069327
 20
35.5677478259
 30
0.0
 11
277.7783962449
 21
35.5677478259
 31
0.0
  0
LINE
  5
98
330
1F
100
AcDbEntity
  8
0
  6
Continuous
 62
     7
370
     0
100
AcDbLine
 10
284.1601091726
 20
34.1708801045
 30
0.0
 11
284.6059984847
 21
34.1708801045
 31
0.0
  0
LINE
  5
99
330
1F
100
AcDbEntity
  8
0
  6
Continuous
 62
     7
370
     0
100
AcDbLine
 10
277.3325069327
 20
34.1708801045
 30
0.0
 11
277.3325069327
 21
35.5677478259
 31
0.0
  0
LINE
  5
9A
330
1F
100
AcDbEntity
  8
0
  6
Continuous
 62
     7
370
     0
100
AcDbLine
 10
278.7230700176
 20
33.4296707178
 30
0.0
 11
279.4774381482
 21
33.4296707178
 31
0.0
  0
LINE
  5
9B
330
1F
100
AcDbEntity
  8
0
  6
Continuous
 62
     7
370
     0
100
AcDbLine
 10
283.2933252358
 20
33.4296707178
 30
0.0
 11
282.7432848235
 21
33.4296707178
 31
0.0
  0
LINE
  5
9C
330
1F
100
AcDbEntity
  8
TITLE_BLOCK
100
AcDbLine
 10
322.1556881168
 20
25.0021256655
 30
0.0
 11
211.7527938281
 21
25.0021256655
 31
0.0
  0
LINE
  5
9D
330
1F
100
AcDbEntity
  8
TITLE_BLOCK
100
AcDbLine
 10
322.1556881168
 20
32.4021256655
 30
0.0
 11
211.7527938281
 21
32.4021256655
 31
0.0
  0
LINE
  5
9E
330
1F
100
AcDbEntity
  8
TITLE_BLOCK
100
AcDbLine
 10
273.1556881168
 20
39.8021256655
 30
0.0
 11
211.7527938281
 21
39.8021256655
 31
0.0
  0
CIRCLE
  5
9F
330
1F
100
AcDbEntity
  8
TITLE_BLOCK
100
AcDbCircle
 10
298.9091897476
 20
11.1216675118
 30
0.0
 40
2.194117471582236
  0
CIRCLE
  5
A0
330
1F
100
AcDbEntity
  8
TITLE_BLOCK
 62
     7
100
AcDbCircle
 10
298.9091897476
 20
11.1216675118
 30
0.0
 40
1.003116012341382
  0
ARC
  5
A1
330
1F
100
AcDbEntity
  8
0
  6
Continuous
 62
     7
370
     0
100
AcDbCircle
 10
285.3752482221
 20
30.8389137232
 30
0.0
 40
15.28832283311962
100
AcDbArc
 50
90.0
 51
104.3903287789
  0
ARC
  5
A2
330
1F
100
AcDbEntity
  8
0
  6
Continuous
 62
     7
370
     0
100
AcDbCircle
 10
282.8530031312
 20
34.4404035173
 30
0.0
 40
0.2219805097685139
100
AcDbArc
 50
180.0
 51
270.0000000001
  0
ARC
  5
A3
330
1F
100
AcDbEntity
  8
0
  6
Continuous
 62
     7
370
     0
100
AcDbCircle
 10
277.7013451523
 20
34.2801707178
 30
0.0
 40
0.8505000000000109
100
AcDbArc
 50
270.0
 51
0.0
  0
ARC
  5
A4
330
1F
100
AcDbEntity
  8
0
  6
Continuous
 62
     7
370
     0
100
AcDbCircle
 10
284.5289473921
 20
34.2801707178
 30
0.0
 40
0.8504999999999967
100
AcDbArc
 50
269.9999999999
 51
359.9999999992
  0
ARC
  5
A5
330
1F
100
AcDbEntity
  8
0
  6
Continuous
 62
     7
370
     0
100
AcDbCircle
 10
275.656669888
 20
34.1963360204
 30
0.0
 40
0.7666653026695656
100
AcDbArc
 50
270.0
 51
0.0
  0
ARC
  5
A6
330
1F
100
AcDbEntity
  8
0
  6
Continuous
 62
     7
370
     0
100
AcDbCircle
 10
287.3309327804
 20
42.3087535313
 30
0.0
 40
0.2126250000001164
100
AcDbArc
 50
0.0
 51
90.0
  0
ARC
  5
A7
330
1F
100
AcDbEntity
  8
0
  6
Continuous
 62
     7
370
     0
100
AcDbCircle
 10
275.873582468
 20
41.4116909285
 30
0.0
 40
0.2126250000000596
100
AcDbArc
 50
180.0
 51
270.0
  0
ARC
  5
A8
330
1F
100
AcDbEntity
  8
0
  6
Continuous
 62
     7
370
     0
100
AcDbCircle
 10
275.0651420264
 20
40.4501140188
 30
0.0
 40
0.2126250000000169
100
AcDbArc
 50
90.0
 51
180.0
  0
ARC
  5
A9
330
1F
100
AcDbEntity
  8
0
  6
Continuous
 62
     7
370
     0
100
AcDbCircle
 10
288.1393732221
 20
43.2703304411
 30
0.0
 40
0.2126250000000596
100
AcDbArc
 50
270.0
 51
0.0
  0
ARC
  5
AA
330
1F
100
AcDbEntity
  8
0
  6
Continuous
 62
     7
370
     0
100
AcDbCircle
 10
280.6474256232
 20
35.2175963695
 30
0.0
 40
0.3115276045256579
100
AcDbArc
 50
0.0
 51
90.0
  0
ARC
  5
AB
330
1F
100
AcDbEntity
  8
0
  6
Continuous
 62
     7
370
     0
100
AcDbCircle
 10
284.2184118314
 20
34.2801707178
 30
0.0
 40
0.8505000000000678
100
AcDbArc
 50
180.0
 51
270.0
  0
ARC
  5
AC
330
1F
100
AcDbEntity
  8
0
  6
Continuous
 62
     7
370
     0
100
AcDbCircle
 10
277.3908095915
 20
35.491978705
 30
0.0
 40
0.8505000000000038
100
AcDbArc
 50
90.0
 51
180.0
  0
ARC
  5
AD
330
1F
100
AcDbEntity
  8
0
  6
Continuous
 62
     7
370
     0
100
AcDbCircle
 10
284.2184118314
 20
35.491978705
 30
0.0
 40
0.8504999999999754
100
AcDbArc
 50
90.0
 51
180.0
  0
ARC
  5
AE
330
1F
100
AcDbEntity
  8
0
  6
Continuous
 62
     7
370
     0
100
AcDbCircle
 10
277.3908095915
 20
34.2801707178
 30
0.0
 40
0.8504999999999967
100
AcDbArc
 50
180.0
 51
270.0
  0
ARC
  5
AF
330
1F
100
AcDbEntity
  8
0
  6
Continuous
 62
     7
370
     0
100
AcDbCircle
 10
280.9353521277
 20
35.5315772663
 30
0.0
 40
0.8109014386841977
100
AcDbArc
 50
360.0
 51
90.0
  0
ARC
  5
B0
330
1F
100
AcDbEntity
  8
0
  6
Continuous
 62
     7
370
     0
100
AcDbCircle
 10
283.3466307817
 20
42.3087535313
 30
0.0
 40
0.2126250000000603
100
AcDbArc
 50
90.0
 51
120.1917161046
  0
ARC
  5
B1
330
1F
100
AcDbEntity
  8
0
  6
Continuous
 62
     7
370
     0
100
AcDbCircle
 10
279.8578844668
 20
41.4116909285
 30
0.0
 40
0.2126249999999684
100
AcDbArc
 50
270.0
 51
300.1917161045
  0
ARC
  5
B2
330
1F
100
AcDbEntity
  8
0
  6
Continuous
 62
     7
370
     0
100
AcDbCircle
 10
275.0651420264
 20
37.8058329035
 30
0.0
 40
0.2126250000000596
100
AcDbArc
 50
180.0
 51
270.0
  0
ARC
  5
B3
330
1F
100
AcDbEntity
  8
0
  6
Continuous
 62
     7
370
     0
100
AcDbCircle
 10
288.1393732221
 20
45.9146115563
 30
0.0
 40
0.2126250000000596
100
AcDbArc
 50
360.0
 51
90.0
  0
ARC
  5
B4
330
1F
100
AcDbEntity
  8
0
  6
Continuous
 62
     7
370
     0
100
AcDbCircle
 10
282.7432848235
 20
34.2936861776
 30
0.0
 40
0.864015459830398
100
AcDbArc
 50
180.0
 51
270.0
  0
ARC
  5
B5
330
1F
100
AcDbEntity
  8
0
  6
Continuous
 62
     7
370
     0
100
AcDbCircle
 10
277.7013451523
 20
35.491978705
 30
0.0
 40
0.8505000000000109
100
AcDbArc
 50
0.0
 51
90.0
  0
ARC
  5
B6
330
1F
100
AcDbEntity
  8
0
  6
Continuous
 62
     7
370
     0
100
AcDbCircle
 10
284.5289473921
 20
35.491978705
 30
0.0
 40
0.8504999999999896
100
AcDbArc
 50
359.9999999992
 51
90.0000000001
  0
ARC
  5
B7
330
1F
100
AcDbEntity
  8
0
  6
Continuous
 62
     7
370
     0
100
AcDbCircle
 10
275.4584137563
 20
34.381101895
 30
0.0
 40
0.2025478082827021
100
AcDbArc
 50
270.0
 51
0.0
  0
ARC
  5
B8
330
1F
100
AcDbEntity
  8
0
  6
Continuous
 62
     7
370
     0
100
AcDbCircle
 10
286.6565005195
 20
40.2786519057
 30
0.0
 40
0.8870572609452247
100
AcDbArc
 50
284.3903287789
 51
0.0
  0
ARC
  5
B9
330
1F
100
AcDbEntity
  8
0
  6
Continuous
 62
     7
370
     0
100
AcDbCircle
 10
276.548014729
 20
43.4417925541
 30
0.0
 40
0.8870572609452592
100
AcDbArc
 50
104.3903287789
 51
180.0
  0
ARC
  5
BA
330
1F
100
AcDbEntity
  8
0
  6
Continuous
 62
     7
370
     0
100
AcDbCircle
 10
280.0373977899
 20
40.8753640188
 30
0.0
 40
0.2126250000000317
100
AcDbArc
 50
270.0
 51
300.1917161045
  0
ARC
  5
BB
330
1F
100
AcDbEntity
  8
0
  6
Continuous
 62
     7
370
     0
100
AcDbCircle
 10
283.1671174586
 20
42.8450804411
 30
0.0
 40
0.2126249999999814
100
AcDbArc
 50
90.0
 51
120.1917161045
  0
ARC
  5
BC
330
1F
100
AcDbEntity
  8
0
  6
Continuous
 62
     7
370
     0
100
AcDbCircle
 10
277.8292670264
 20
52.8815307366
 30
0.0
 40
15.28832283311961
100
AcDbArc
 50
270.0
 51
284.3903287789
  0
MTEXT
  5
E0
330
1F
100
AcDbEntity
  8
TITLE_BLOCK
100
AcDbMText
 10
324.4945167774
 20
9.5202077745
 30
0.0
 40
2.1166666667
 41
0.0
 46
0.0
 71
     1
 72
     1
  1
SHEET 1 OF 1
  7
SLDTEXTSTYLE0
 73
     1
 44
1.0
  0
MTEXT
  5
E2
330
1F
100
AcDbEntity
  8
TITLE_BLOCK
100
AcDbMText
 10
213.3417293533
 20
44.4107533037
 30
0.0
 40
2.1166666667
 41
0.0
 46
0.0
 71
     1
 72
     1
  1
MATERIAL
  7
SLDTEXTSTYLE1
 73
     1
 44
1.0
  0
MTEXT
  5
E3
330
1F
100
AcDbEntity
  8
TITLE_BLOCK
100
AcDbMText
 10
213.5149717788
 20
37.0894297908
 30
0.0
 40
2.1166666667
 41
0.0
 46
0.0
 71
     1
 72
     1
  1
WEIGHT
  7
SLDTEXTSTYLE1
 73
     1
 44
1.0
  0
MTEXT
  5
E4
330
1F
100
AcDbEntity
  8
TITLE_BLOCK
100
AcDbMText
 10
323.1747691977
 20
36.0022183949
 30
0.0
 40
1.5875
 41
0.0
 46
0.0
 71
     1
 72
     1
  1
TITLE
  7
SLDTEXTSTYLE1
 73
     1
 44
1.0
  0
MTEXT
  5
E5
330
1F
100
AcDbEntity
  8
TITLE_BLOCK
100
AcDbMText
 10
343.7614946789
 20
16.1391007025
 30
0.0
 40
1.5875
 41
0.0
 46
0.0
 71
     1
 72
     1
  1
DRAWING NUMBER
  7
SLDTEXTSTYLE1
 73
     1
 44
1.0
  0
INSERT
  5
F2
330
1F
100
AcDbEntity
  8
TITLE_BLOCK
100
AcDbBlockReference
  2
SW_NOTE_0
 10
223.6659655298193
 20
12.28921517929736
 30
0.0
 41
0.7532582043343723
 42
0.7532582043343723
 43
0.7532582043343723
  0
MTEXT
  5
F3
330
1F
100
AcDbEntity
  8
TITLE_BLOCK
100
AcDbMText
 10
405.8121873683
 20
11.7371024093
 30
0.0
 40
2.6458333333
 41
0.0
 46
0.0
 71
     1
 72
     1
  1
A
  7
SLDTEXTSTYLE1
 73
     1
 44
1.0
  0
MTEXT
  5
F5
330
1F
100
AcDbEntity
  8
TITLE_BLOCK
100
AcDbMText
 10
306.9263936337
 20
29.8756951151
 30
0.0
 40
2.1166666667
 41
0.0
 46
2.1166666667
 71
     1
 72
     1
  1
{MJS}
  7
SLDTEXTSTYLE1
 73
     1
 44
1.0
1001
ACAD
1000
ACAD_MTEXT_DEFINED_HEIGHT_BEGIN
1070
    46
1040
2.1166666667
1000
ACAD_MTEXT_DEFINED_HEIGHT_END
  0
INSERT
  5
FC
330
1F
100
AcDbEntity
  8
TITLE_BLOCK
100
AcDbBlockReference
  2
SW_NOTE_1
 10
289.2141850078737
 20
41.40140593692091
 30
0.0
 41
0.9415727554179512
 42
0.9415727554179512
 43
0.9415727554179512
  0
INSERT
  5
10A
330
1F
100
AcDbEntity
  8
TITLE_BLOCK
100
AcDbBlockReference
  2
SW_NOTE_2
 10
155.2736219132
 20
42.1586241471
 30
0.0
  0
MTEXT
  5
10B
330
1F
100
AcDbEntity
  8
TITLE_BLOCK
100
AcDbMText
 10
283.5194251778
 20
29.8763616023
 30
0.0
 40
2.1166666667
 41
0.0
 46
0.0
 71
     1
 72
     1
  1
DRAWN
  7
SLDTEXTSTYLE1
 73
     1
 44
1.0
  0
MTEXT
  5
10C
330
1F
100
AcDbEntity
  8
TITLE_BLOCK
100
AcDbMText
 10
400.9533870978
 20
16.1391007025
 30
0.0
 40
1.5875
 41
0.0
 46
0.0
 71
     1
 72
     1
  1
REV
  7
SLDTEXTSTYLE1
 73
     1
 44
1.0
  0
MTEXT
  5
10D
330
1F
100
AcDbEntity
  8
TITLE_BLOCK
100
AcDbMText
 10
357.0263734373
 20
11.7371024093
 30
0.0
 40
2.6458333333
 41
0.0
 46
0.0
 71
     1
 72
     1
  1
90D51-P2-04REVA
  7
SLDTEXTSTYLE1
 73
     1
 44
1.0
  0
MTEXT
  5
116
330
1F
100
AcDbEntity
  8
TITLE_BLOCK
100
AcDbMText
 10
359.8440841007
 20
28.4404205221
 30
0.0
 40
2.6458333333
 41
0.0
 46
2.6458333333
 71
     1
 72
     1
  1
{90D51 HOOK CNC DETAIL}
  7
SLDTEXTSTYLE1
 73
     1
 44
1.0
1001
ACAD
1000
ACAD_MTEXT_DEFINED_HEIGHT_BEGIN
1070
    46
1040
2.6458333333
1000
ACAD_MTEXT_DEFINED_HEIGHT_END
  0
MTEXT
  5
118
330
1F
100
AcDbEntity
  8
TITLE_BLOCK
100
AcDbMText
 10
326.2500765943
 20
15.5202077745
 30
0.0
 40
2.1166666667
 41
0.0
 46
0.0
 71
     1
 72
     1
  1
SCALE 1:1
  7
SLDTEXTSTYLE1
 73
     1
 44
1.0
  0
MTEXT
  5
119
330
1F
100
AcDbEntity
  8
TITLE_BLOCK
100
AcDbMText
 10
287.0428990403
 20
22.1593042768
 30
0.0
 40
2.1166666667
 41
0.0
 46
0.0
 71
     1
 72
     1
  1
DATE
  7
SLDTEXTSTYLE1
 73
     1
 44
1.0
  0
MTEXT
  5
11A
330
1F
100
AcDbEntity
  8
TITLE_BLOCK
100
AcDbMText
 10
301.1915496168
 20
22.1593042186
 30
0.0
 40
2.1166666667
 41
0.0
 46
0.0
 71
     1
 72
     1
  1
21/11/2018
  7
SLDTEXTSTYLE1
 73
     1
 44
1.0
  0
MTEXT
  5
11B
330
1F
100
AcDbEntity
  8
TITLE_BLOCK
100
AcDbMText
 10
213.6538832014
 20
29.5934338183
 30
0.0
 40
2.1166666667
 41
0.0
 46
0.0
 71
     1
 72
     1
  1
FINISH
  7
SLDTEXTSTYLE1
 73
     1
 44
1.0
  0
MTEXT
  5
11C
330
1F
100
AcDbEntity
  8
TITLE_BLOCK
100
AcDbMText
 10
213.2942025654
 20
21.907357706
 30
0.0
 40
2.1166666667
 41
0.0
 46
0.0
 71
     1
 72
     1
  1
COATING
  7
SLDTEXTSTYLE1
 73
     1
 44
1.0
  0
MTEXT
  5
11D
330
1F
100
AcDbEntity
  8
TITLE_BLOCK
100
AcDbMText
 10
312.4826565096
 20
12.9523400001
 30
0.0
 40
3.7041666667
 41
0.0
 46
0.0
 71
     1
 72
     1
  1
A3
  7
SLDTEXTSTYLE1
 73
     1
 44
1.0
  0
INSERT
  5
12B
330
1F
100
AcDbEntity
  8
TITLE_BLOCK
100
AcDbBlockReference
  2
SW_NOTE_4
 10
179.5194074593
 20
19.8789739419
 30
0.0
  0
MTEXT
  5
12C
330
1F
100
AcDbEntity
  8
TITLE_BLOCK
100
AcDbMText
 10
323.1747691977
 20
46.2741749591
 30
0.0
 40
1.5875
 41
0.0
 46
0.0
 71
     1
 72
     1
  1
PROJECT
  7
SLDTEXTSTYLE1
 73
     1
 44
1.0
  0
INSERT
  5
13A
330
1F
100
AcDbEntity
  8
TITLE_BLOCK
100
AcDbBlockReference
  2
SW_NOTE_5
 10
157.5732527778
 20
19.8789748732
 30
0.0
  0
MTEXT
  5
13B
330
1F
100
AcDbEntity
  8
TITLE_BLOCK
100
AcDbMText
 10
229.7013684461
 20
29.5934337601
 30
0.0
 40
2.1166666667
 41
0.0
 46
0.0
 71
     1
 72
     1
  1
N/A
  7
SLDTEXTSTYLE1
 73
     1
 44
1.0
  0
MTEXT
  5
13C
330
1F
100
AcDbEntity
  8
TITLE_BLOCK
100
AcDbMText
 10
229.9836938531
 20
22.3204359615
 30
0.0
 40
2.1166666667
 41
0.0
 46
0.0
 71
     1
 72
     1
  1
N/A
  7
SLDTEXTSTYLE1
 73
     1
 44
1.0
  0
MTEXT
  5
13D
330
1F
100
AcDbEntity
  8
TITLE_BLOCK
100
AcDbMText
 10
359.5207056198
 20
43.3471626234
 30
0.0
 40
2.6458333333
 41
0.0
 46
0.0
 71
     1
 72
     1
  1
STRIPLOX 90D
  7
SLDTEXTSTYLE1
 73
     1
 44
1.0
  0
MTEXT
  5
13F
330
1F
100
AcDbEntity
  8
SLD-0
 62
     7
100
AcDbMText
 10
287.7153744699
 20
36.3283658992
 30
0.0
 40
1.3229166667
 41
0.0
 46
0.0
 71
     1
 72
     1
  1
®
  7
SLDTEXTSTYLE4
 73
     1
 44
1.0
  0
INSERT
  5
154
330
1F
100
AcDbEntity
  8
SLD-0
100
AcDbBlockReference
  2
SW_TABLEANNOTATION_0
 10
5.1556881168
 20
15.2021256655
 30
0.0
  0
LINE
  5
16F
330
1F
100
AcDbEntity
  8
0
  6
Continuous
 62
     7
370
    15
100
AcDbLine
 10
178.409419722574
 20
152.5064593978595
 30
0.0
 11
175.41742052853
 21
152.5064593978595
 31
0.0
  0
LINE
  5
175
330
1F
100
AcDbEntity
  8
0
  6
Continuous
 62
     7
370
    15
100
AcDbLine
 10
181.3049987178916
 20
152.5064593978595
 30
0.0
 11
178.409419722574
 21
152.5064593978595
 31
0.0
  0
LINE
  5
17C
330
1F
100
AcDbEntity
  8
0
  6
Continuous
 62
     7
370
    15
100
AcDbLine
 10
184.296996019534
 20
152.5064593978595
 30
0.0
 11
181.3049987178916
 21
152.5064593978595
 31
0.0
  0
LINE
  5
18C
330
1F
100
AcDbEntity
  8
0
  6
Continuous
 62
     7
370
    15
100
AcDbLine
 10
175.41742052853
 20
152.5064593978595
 30
0.0
 11
174.7752582204772
 21
152.5064593978595
 31
0.0
  0
LINE
  5
191
330
1F
100
AcDbEntity
  8
0
  6
Continuous
 62
     7
370
    15
100
AcDbLine
 10
148.1072082740828
 20
152.5064593978595
 30
0.0
 11
148.1072082740828
 21
158.2754176786651
 31
0.0
  0
LINE
  5
19E
330
1F
100
AcDbEntity
  8
0
  6
Continuous
 62
     7
370
    15
100
AcDbLine
 10
184.9391564351852
 20
152.5064593978595
 30
0.0
 11
184.296996019534
 21
152.5064593978595
 31
0.0
  0
LINE
  5
1AB
330
1F
100
AcDbEntity
  8
0
  6
Continuous
 62
     7
370
    15
100
AcDbLine
 10
185.1088067811772
 20
152.5064593978595
 30
0.0
 11
184.9391564351852
 21
152.5064593978595
 31
0.0
  0
LINE
  5
1AE
330
1F
100
AcDbEntity
  8
0
  6
Continuous
 62
     7
370
    15
100
AcDbLine
 10
174.7752582204772
 20
152.5064593978595
 30
0.0
 11
174.6056078743836
 21
152.5064593978595
 31
0.0
  0
LINE
  5
1C4
330
1F
100
AcDbEntity
  8
0
  6
Continuous
 62
     7
370
    15
100
AcDbLine
 10
148.1072082740828
 20
158.2754176786651
 30
0.0
 11
148.1072082740828
 21
160.2428932409883
 31
0.0
  0
CIRCLE
  5
265
330
1F
100
AcDbEntity
  8
0
  6
Continuous
 62
     7
370
    15
100
AcDbCircle
 10
155.2192082740828
 20
168.7624591709867
 30
0.0
 40
4.775200000000018
  0
LINE
  5
27A
330
1F
100
AcDbEntity
  8
0
  6
Continuous
 62
     7
370
    15
100
AcDbLine
 10
149.6312082872908
 20
175.8744594432747
 30
0.0
 11
172.989506937326
 21
175.8744594432747
 31
0.0
  0
LINE
  5
27C
330
1F
100
AcDbEntity
  8
0
  6
Continuous
 62
     7
370
    15
100
AcDbLine
 10
174.024908475358
 20
175.8744594432747
 30
0.0
 11
197.3832097274708
 21
175.8744594432747
 31
0.0
  0
CIRCLE
  5
27D
330
1F
100
AcDbEntity
  8
0
  6
Continuous
 62
     7
370
    15
100
AcDbCircle
 10
155.2192082740828
 20
168.7624591709867
 30
0.0
 40
4.572
  0
LINE
  5
28F
102
{ACAD_REACTORS
330
3F1
102
}
330
1F
100
AcDbEntity
  8
0
  6
Continuous
 62
     7
370
    15
100
AcDbLine
 10
198.9072090310028
 20
174.3504582472395
 30
0.0
 11
198.9072090310028
 21
162.3801295027531
 31
0.0
  0
ARC
  5
291
330
1F
100
AcDbEntity
  8
0
  6
Continuous
 62
     7
370
    15
100
AcDbCircle
 10
197.3832082740828
 20
174.3504591709867
 30
0.0
 40
1.524
100
AcDbArc
 50
0.0
 51
90.0
  0
ARC
  5
299
330
1F
100
AcDbEntity
  8
0
  6
Continuous
 62
     7
370
    15
100
AcDbCircle
 10
149.6312082740828
 20
174.3504591709867
 30
0.0
 40
1.524
100
AcDbArc
 50
90.0
 51
180.0
  0
LINE
  5
29B
102
{ACAD_REACTORS
330
3CF
102
}
330
1F
100
AcDbEntity
  8
0
  6
Continuous
 62
     7
370
    15
100
AcDbLine
 10
148.1072082740828
 20
160.2428932409883
 30
0.0
 11
148.1072082740828
 21
174.3504582472395
 31
0.0
  0
ARC
  5
29E
330
1F
100
AcDbEntity
  8
0
  6
Continuous
 62
     7
370
    15
100
AcDbCircle
 10
173.5072082740828
 20
175.9760208309059
 30
0.0
 40
0.3146206146347252
100
AcDbArc
 50
216.0542299942014
 51
323.9457700058016
  0
LINE
  5
2A5
330
1F
100
AcDbEntity
  8
0
  6
Continuous
 62
     7
370
    15
100
AcDbLine
 10
198.9072090310028
 20
162.3801295027531
 30
0.0
 11
198.9072090310028
 21
162.1248094789771
 31
0.0
  0
SPLINE
  5
2AE
330
1F
100
AcDbEntity
  8
0
  6
Continuous
 62
     7
370
    15
100
AcDbSpline
210
0.0
220
0.0
230
1.0
 70
    24
 71
     3
 72
    14
 73
    10
 74
     0
 42
0.000000001
 43
0.00000001
 40
0.0
 40
0.0
 40
0.0
 40
0.0
 40
0.0012528684946566
 40
0.0012528684946566
 40
0.0012528684946566
 40
0.0023348949516447
 40
0.0023348949516447
 40
0.0023348949516447
 40
0.0046755523106196
 40
0.0046755523106196
 40
0.0046755523106196
 40
0.0046755523106196
 10
173.9258728488616
 20
175.8744591710272
 30
0.0
 10
173.9350318406157
 20
175.8744591710272
 30
0.0
 10
173.9440871855102
 20
175.8744591710272
 30
0.0
 10
173.9530567487527
 20
175.8744591710272
 30
0.0
 10
173.960803216055
 20
175.8744591710272
 30
0.0
 10
173.9684855774125
 20
175.8744591710272
 30
0.0
 10
173.9761128442396
 20
175.8744591710272
 30
0.0
 10
173.9926122722885
 20
175.8744591710272
 30
0.0
 10
174.0088556146854
 20
175.8744591710272
 30
0.0
 10
174.0249090364958
 20
175.8744591710272
 30
0.0
  0
SPLINE
  5
2AF
330
1F
100
AcDbEntity
  8
0
  6
Continuous
 62
     7
370
    15
100
AcDbSpline
210
0.0
220
0.0
230
1.0
 70
     8
 71
     3
 72
     8
 73
     4
 74
     0
 42
0.000000001
 43
0.00000001
 40
0.0
 40
0.0
 40
0.0
 40
0.0
 40
1.0
 40
1.0
 40
1.0
 40
1.0
 10
173.7615665499237
 20
175.7908506426263
 30
0.0
 10
173.7994266915641
 20
175.8428570729434
 30
0.0
 10
173.8615444274159
 20
175.8744591710272
 30
0.0
 10
173.9258728488616
 20
175.8744591710272
 30
0.0
  0
SPLINE
  5
2B0
330
1F
100
AcDbEntity
  8
0
  6
Continuous
 62
     7
370
    15
100
AcDbSpline
210
0.0
220
0.0
230
1.0
 70
    24
 71
     3
 72
    14
 73
    10
 74
     0
 42
0.000000001
 43
0.00000001
 40
0.0
 40
0.0
 40
0.0
 40
0.0
 40
0.0023406573085327
 40
0.0023406573085327
 40
0.0023406573085327
 40
0.0034226837422026
 40
0.0034226837422026
 40
0.0034226837422026
 40
0.0046755522098593
 40
0.0046755522098593
 40
0.0046755522098593
 40
0.0046755522098593
 10
172.9895075115791
 20
175.8744591710272
 30
0.0
 10
173.0055609333895
 20
175.8744591710272
 30
0.0
 10
173.0218042757865
 20
175.8744591710272
 30
0.0
 10
173.0383037038353
 20
175.8744591710272
 30
0.0
 10
173.0459309706624
 20
175.8744591710272
 30
0.0
 10
173.0536133320199
 20
175.8744591710272
 30
0.0
 10
173.0613597993222
 20
175.8744591710272
 30
0.0
 10
173.0703293625648
 20
175.8744591710272
 30
0.0
 10
173.0793847074592
 20
175.8744591710272
 30
0.0
 10
173.0885436992133
 20
175.8744591710272
 30
0.0
  0
SPLINE
  5
2B1
330
1F
100
AcDbEntity
  8
0
  6
Continuous
 62
     7
370
    15
100
AcDbSpline
210
0.0
220
0.0
230
1.0
 70
     8
 71
     3
 72
     8
 73
     4
 74
     0
 42
0.000000001
 43
0.00000001
 40
0.0
 40
0.0
 40
0.0
 40
0.0
 40
1.0
 40
1.0
 40
1.0
 40
1.0
 10
173.0885436992133
 20
175.8744591710272
 30
0.0
 10
173.1528722039127
 20
175.8744591710272
 30
0.0
 10
173.2149898076009
 20
175.8428571401282
 30
0.0
 10
173.2528499981513
 20
175.7908506426263
 30
0.0
  0
ARC
  5
2B5
102
{ACAD_REACTORS
330
39C
330
3AC
102
}
330
1F
100
AcDbEntity
  8
0
  6
Continuous
 62
     7
370
    15
100
AcDbCircle
 10
149.6312082740828
 20
151.9984591709867
 30
0.0
 40
1.524
100
AcDbArc
 50
180.0
 51
270.0
  0
ARC
  5
2B6
330
1F
100
AcDbEntity
  8
0
  6
Continuous
 62
     7
370
    15
100
AcDbCircle
 10
174.0152082740828
 20
151.9984591709867
 30
0.0
 40
0.508
100
AcDbArc
 50
90.0
 51
180.0
  0
LINE
  5
2B7
330
1F
100
AcDbEntity
  8
0
  6
Continuous
 62
     7
370
    15
100
AcDbLine
 10
173.5072086525428
 20
151.9984593145475
 30
0.0
 11
173.5072086525428
 21
150.9824591480251
 31
0.0
  0
ARC
  5
2B8
330
1F
100
AcDbEntity
  8
0
  6
Continuous
 62
     7
370
    15
100
AcDbCircle
 10
172.9992082740828
 20
150.9824591709867
 30
0.0
 40
0.5080000000000289
100
AcDbArc
 50
270.0
 51
0.0
  0
LINE
  5
2B9
330
1F
100
AcDbEntity
  8
0
  6
Continuous
 62
     7
370
    15
100
AcDbLine
 10
172.99920762303
 20
150.4744590648147
 30
0.0
 11
149.6312082872908
 21
150.4744590648147
 31
0.0
  0
LINE
  5
2BA
330
1F
100
AcDbEntity
  8
0
  6
Continuous
 62
     7
370
    15
100
AcDbLine
 10
148.1072082740828
 20
151.9984593145475
 30
0.0
 11
148.1072082740828
 21
152.5064593978595
 31
0.0
  0
LINE
  5
2BB
330
1F
100
AcDbEntity
  8
0
  6
Continuous
 62
     7
370
    15
100
AcDbLine
 10
174.6056078743836
 20
152.5064593978595
 30
0.0
 11
174.0152077895524
 21
152.5064593978595
 31
0.0
  0
ARC
  5
2BC
330
1F
100
AcDbEntity
  8
0
  6
Continuous
 62
     7
370
    15
100
AcDbCircle
 10
197.3832082740828
 20
154.0304591709867
 30
0.0
 40
1.524
100
AcDbArc
 50
270.0
 51
0.0
  0
LINE
  5
2BD
102
{ACAD_REACTORS
330
39C
102
}
330
1F
100
AcDbEntity
  8
0
  6
Continuous
 62
     7
370
    15
100
AcDbLine
 10
198.9072090310028
 20
162.1248094789771
 30
0.0
 11
198.9072090310028
 21
154.0304591745427
 31
0.0
  0
LINE
  5
2BE
102
{ACAD_REACTORS
330
3BC
102
}
330
1F
100
AcDbEntity
  8
0
  6
Continuous
 62
     7
370
    15
100
AcDbLine
 10
197.3832097274708
 20
152.5064593978595
 30
0.0
 11
185.1088067811772
 21
152.5064593978595
 31
0.0
  0
CIRCLE
  5
2BF
102
{ACAD_REACTORS
330
3CF
330
3E1
102
}
330
1F
100
AcDbEntity
  8
0
  6
Continuous
 62
     7
370
    15
100
AcDbCircle
 10
155.2192082740828
 20
168.7621854827355
 30
0.0
 40
2.245899703669893
  0
LINE
  5
2C3
102
{ACAD_REACTORS
330
3BC
102
}
330
1F
100
AcDbEntity
  8
SLD-0
100
AcDbLine
 10
97.63117451687798
 20
150.4744591709867
 30
0.0
 11
241.441607094574
 21
150.4744591709867
 31
0.0
  0
INSERT
  5
34A
330
1F
100
AcDbEntity
  8
0
  6
Continuous
 62
     7
370
     0
100
AcDbBlockReference
  2
SW_CENTERMARKSYMBOL_0
 10
187.7312082740828
 20
168.7624591709867
 30
0.0
 41
1.016
 42
1.016
 43
1.016
  0
INSERT
  5
356
330
1F
100
AcDbEntity
  8
0
  6
Continuous
 62
     7
370
     0
100
AcDbBlockReference
  2
SW_CENTERMARKSYMBOL_1
 10
155.2192082740828
 20
168.7624591709867
 30
0.0
 41
1.016
 42
1.016
 43
1.016
  0
CIRCLE
  5
38E
330
1F
100
AcDbEntity
  8
0
  6
Continuous
 62
     7
370
    15
100
AcDbCircle
 10
187.7312082740828
 20
168.7624591709867
 30
0.0
 40
4.775200000000018
  0
CIRCLE
  5
38F
330
1F
100
AcDbEntity
  8
0
  6
Continuous
 62
     7
370
    15
100
AcDbCircle
 10
187.7312082740828
 20
168.7624591709867
 30
0.0
 40
4.572
  0
CIRCLE
  5
390
102
{ACAD_REACTORS
330
3E1
330
3F1
102
}
330
1F
100
AcDbEntity
  8
0
  6
Continuous
 62
     7
370
    15
100
AcDbCircle
 10
187.7312082740828
 20
168.7621854827355
 30
0.0
 40
2.245899703669893
  0
LINE
  5
397
330
1F
100
AcDbEntity
  8
0
  6
CENTER
100
AcDbLine
 10
173.5239483239373
 20
136.7926604321913
 30
0.0
 11
173.5239483239373
 21
186.7869414800635
 31
0.0
  0
DIMENSION
  5
39A
102
{ACAD_REACTORS
330
39C
102
}
102
{ACAD_XDICTIONARY
360
39B
102
}
330
1F
100
AcDbEntity
  8
0
100
AcDbDimension
  2
*D22
 10
198.9072090310028
 20
116.8542185326566
 30
0.0
 11
173.5072086525428
 21
120.4198851993233
 31
0.0
 70
    32
 71
     5
 42
50.80000075692001
 73
     0
 74
     0
 75
     0
  3
ISO-25
100
AcDbAlignedDimension
 13
148.1072082740828
 23
151.9984591709867
 33
0.0
 14
198.9072090310028
 24
154.0304591745427
 34
0.0
100
AcDbRotatedDimension
1001
ACAD
1000
DSTYLE
1002
{
1070
   144
1040
1.0
1070
   179
1070
     2
1070
    41
1040
3.302
1070
   271
1070
     1
1070
    44
1040
1.0
1070
    42
1040
1.0
1070
   147
1040
1.524
1070
   272
1070
     3
1070
    73
1070
     1
1070
    74
1070
     1
1070
   140
1040
3.5
1070
   284
1070
     0
1070
    78
1070
     0
1002
}
  0
DIMENSION
  5
3AA
102
{ACAD_REACTORS
330
3AC
102
}
102
{ACAD_XDICTIONARY
360
3AB
102
}
330
1F
100
AcDbEntity
  8
0
100
AcDbDimension
  2
*D23
 10
173.5072086525428
 20
133.3876003183981
 30
0.0
 11
160.8072084633128
 21
136.9532669850648
 31
0.0
 70
    32
 71
     5
 42
25.40000037845999
 73
     0
 74
     0
 75
     0
  3
ISO-25
100
AcDbAlignedDimension
 13
148.1072082740828
 23
151.9984591709867
 33
0.0
 14
173.5072086525428
 24
136.4767133560711
 34
0.0
100
AcDbRotatedDimension
1001
ACAD
1000
DSTYLE
1002
{
1070
   144
1040
1.0
1070
   179
1070
     2
1070
    41
1040
3.302
1070
   271
1070
     1
1070
    44
1040
1.0
1070
    42
1040
1.0
1070
   147
1040
1.524
1070
   272
1070
     3
1070
    73
1070
     1
1070
    74
1070
     1
1070
   140
1040
3.5
1070
   284
1070
     0
1070
    78
1070
     0
1002
}
  0
DIMENSION
  5
3BA
102
{ACAD_REACTORS
330
3BC
102
}
102
{ACAD_XDICTIONARY
360
3BB
102
}
330
1F
100
AcDbEntity
  8
0
100
AcDbDimension
  2
*D24
 10
206.6931357527491
 20
150.4744591709867
 30
0.0
 11
211.7171357527491
 21
159.2161233978595
 31
0.0
 70
   160
 71
     5
 42
2.03200022687281
 73
     0
 74
     0
 75
     0
  3
ISO-25
100
AcDbAlignedDimension
 13
197.3832097274708
 23
152.5064593978595
 33
0.0
 14
197.3832097274708
 24
150.4744591709867
 34
0.0
 50
90.0
100
AcDbRotatedDimension
1001
ACAD
1000
DSTYLE
1002
{
1070
   144
1040
1.0
1070
   179
1070
     2
1070
    41
1040
3.302
1070
   271
1070
     1
1070
    44
1040
1.0
1070
    42
1040
1.0
1070
   147
1040
1.524
1070
   272
1070
     3
1070
    73
1070
     1
1070
    74
1070
     1
1070
   140
1040
3.5
1070
   284
1070
     0
1070
    78
1070
     0
1002
}
  0
DIMENSION
  5
3CD
102
{ACAD_REACTORS
330
3CF
102
}
102
{ACAD_XDICTIONARY
360
3CE
102
}
330
1F
100
AcDbEntity
  8
0
100
AcDbDimension
  2
*D25
 10
155.2192082740828
 20
196.8938052290844
 30
0.0
 11
127.5291804704221
 21
196.8938052290844
 31
0.0
 70
   160
 71
     5
 42
7.111999999999995
 73
     0
 74
     0
 75
     0
  3
ISO-25
100
AcDbAlignedDimension
 13
148.1072082740828
 23
174.3504582472395
 33
0.0
 14
155.2192082740828
 24
168.7621854827355
 34
0.0
100
AcDbRotatedDimension
1001
ACAD
1000
DSTYLE
1002
{
1070
   144
1040
1.0
1070
   179
1070
     2
1070
    41
1040
3.302
1070
   271
1070
     1
1070
    44
1040
1.0
1070
    42
1040
1.0
1070
   147
1040
1.524
1070
   272
1070
     3
1070
    73
1070
     1
1070
    74
1070
     1
1070
   140
1040
3.5
1070
   284
1070
     0
1070
    78
1070
     0
1002
}
  0
DIMENSION
  5
3DF
102
{ACAD_REACTORS
330
3E1
102
}
102
{ACAD_XDICTIONARY
360
3E0
102
}
330
1F
100
AcDbEntity
  8
0
100
AcDbDimension
  2
*D26
 10
187.7312082740828
 20
196.9420231589484
 30
0.0
 11
171.4752082740828
 21
200.5076898256151
 31
0.0
 70
    32
 71
     5
 42
32.512
 73
     0
 74
     0
 75
     0
  3
ISO-25
100
AcDbAlignedDimension
 13
155.2192082740828
 23
168.7621854827355
 33
0.0
 14
187.7312082740828
 24
168.7621854827355
 34
0.0
100
AcDbRotatedDimension
1001
ACAD
1000
DSTYLE
1002
{
1070
   144
1040
1.0
1070
   179
1070
     2
1070
    41
1040
3.302
1070
   271
1070
     1
1070
    44
1040
1.0
1070
    42
1040
1.0
1070
   147
1040
1.524
1070
   272
1070
     3
1070
    73
1070
     1
1070
    74
1070
     1
1070
   140
1040
3.5
1070
   284
1070
     0
1070
    78
1070
     0
1002
}
  0
DIMENSION
  5
3EF
102
{ACAD_REACTORS
330
3F1
102
}
102
{ACAD_XDICTIONARY
360
3F0
102
}
330
1F
100
AcDbEntity
  8
0
100
AcDbDimension
  2
*D27
 10
198.9072090310028
 20
196.9818790518309
 30
0.0
 11
218.0248756976695
 21
200.2558790518309
 31
0.0
 70
    32
  1
11.2(0.441")
 71
     5
 42
11.17600075692002
 73
     0
 74
     0
 75
     0
  3
ISO-25
100
AcDbAlignedDimension
 13
187.7312082740828
 23
168.7621854827355
 33
0.0
 14
198.9072090310028
 24
174.3504582472395
 34
0.0
100
AcDbRotatedDimension
1001
ACAD
1000
DSTYLE
1002
{
1070
   144
1040
1.0
1070
   179
1070
     2
1070
    41
1040
3.302
1070
   271
1070
     1
1070
    44
1040
1.0
1070
    42
1040
1.0
1070
   147
1040
1.524
1070
   272
1070
     3
1070
    73
1070
     1
1070
    74
1070
     1
1070
   140
1040
3.5
1070
   284
1070
     0
1070
    78
1070
     0
1002
}
  0
LINE
  5
429
330
1F
100
AcDbEntity
  8
0
100
AcDbLine
 10
306.2883344724767
 20
149.6679474625879
 30
0.0
 11
306.2883344724767
 21
173.6679478350878
 31
0.0
1001
PE_URL
1000

  0
LINE
  5
42C
102
{ACAD_REACTORS
330
43A
102
}
330
1F
100
AcDbEntity
  8
0
100
AcDbLine
 10
311.2883344724767
 20
149.6679474625879
 30
0.0
 11
311.2883344724767
 21
173.6679478350878
 31
0.0
1001
PE_URL
1000

  0
LINE
  5
42E
330
1F
100
AcDbEntity
  8
0
100
AcDbLine
 10
307.0383344724767
 20
162.6679475670878
 30
0.0
 11
307.0383344724767
 21
171.6679475670878
 31
0.0
  0
LINE
  5
430
330
1F
100
AcDbEntity
  8
0
  6
CENTER
100
AcDbLine
 10
300.9177755466847
 20
167.1679475670878
 30
0.0
 11
317.1923939896609
 21
167.1679475670878
 31
0.0
1001
PE_URL
1000

  0
LINE
  5
431
102
{ACAD_REACTORS
330
43A
102
}
330
1F
100
AcDbEntity
  8
0
100
AcDbLine
 10
309.684181809085
 20
169.3679475670878
 30
0.0
 11
311.2883344724767
 21
169.3679475670878
 31
0.0
  0
LINE
  5
432
102
{ACAD_REACTORS
330
43A
102
}
330
1F
100
AcDbEntity
  8
0
100
AcDbLine
 10
309.684181809085
 20
164.9679475670878
 30
0.0
 11
311.2883344724767
 21
164.9679475670878
 31
0.0
  0
LINE
  5
433
330
1F
100
AcDbEntity
  8
0
100
AcDbLine
 10
306.2883344724767
 20
162.6679475670878
 30
0.0
 11
307.0383344724767
 21
162.6679475670878
 31
0.0
  0
LINE
  5
434
330
1F
100
AcDbEntity
  8
0
100
AcDbLine
 10
306.2883344724767
 20
171.6679475670878
 30
0.0
 11
307.0383344724767
 21
171.6679475670878
 31
0.0
  0
DIMENSION
  5
438
102
{ACAD_REACTORS
330
43A
102
}
102
{ACAD_XDICTIONARY
360
439
102
}
330
1F
100
AcDbEntity
  8
0
100
AcDbDimension
  2
*D30
 10
320.7472123237526
 20
169.3679475670878
 30
0.0
 11
326.0628789904193
 21
179.5376142337544
 31
0.0
 70
    32
 71
     5
 42
4.399999999999977
 73
     0
 74
     0
 75
     0
  3
ISO-25
100
AcDbAlignedDimension
 13
311.2883344724767
 23
164.9679475670878
 33
0.0
 14
311.2883344724767
 24
169.3679475670878
 34
0.0
 50
90.0
100
AcDbRotatedDimension
1001
ACAD
1000
DSTYLE
1002
{
1070
   144
1040
1.0
1070
   179
1070
     2
1070
    41
1040
3.302
1070
   271
1070
     1
1070
    44
1040
1.0
1070
    42
1040
1.0
1070
   147
1040
1.524
1070
   272
1070
     3
1070
    73
1070
     1
1070
    74
1070
     1
1070
   140
1040
3.5
1070
   284
1070
     0
1070
    78
1070
     0
1002
}
  0
LINE
  5
470
330
1F
100
AcDbEntity
  8
0
100
AcDbLine
 10
306.7883344724767
 20
174.1679478350878
 30
0.0
 11
310.7883344724767
 21
174.1679478350878
 31
0.0
  0
LINE
  5
471
330
1F
100
AcDbEntity
  8
0
100
AcDbLine
 10
306.2883344724767
 20
151.1679477903878
 30
0.0
 11
311.2883344724767
 21
151.1679477903878
 31
0.0
  0
LINE
  5
472
330
1F
100
AcDbEntity
  8
0
100
AcDbLine
 10
306.7883344724767
 20
149.1679474625879
 30
0.0
 11
310.7883344724767
 21
149.1679474625879
 31
0.0
  0
ARC
  5
474
330
1F
100
AcDbEntity
  8
0
100
AcDbCircle
 10
306.7883344724767
 20
173.6679478350878
 30
0.0
 40
0.5000000000000001
100
AcDbArc
 50
90.0
 51
180.0
  0
ARC
  5
475
330
1F
100
AcDbEntity
  8
0
100
AcDbCircle
 10
306.7883344724767
 20
149.6679474625879
 30
0.0
 40
0.5
100
AcDbArc
 50
180.0
 51
270.0
  0
ARC
  5
476
330
1F
100
AcDbEntity
  8
0
100
AcDbCircle
 10
310.7883344724767
 20
149.6679474625879
 30
0.0
 40
0.5000000000000001
100
AcDbArc
 50
270.0
 51
0.0
  0
ARC
  5
477
330
1F
100
AcDbEntity
  8
0
100
AcDbCircle
 10
310.7883344724767
 20
173.6679478350878
 30
0.0
 40
0.5000000000000002
100
AcDbArc
 50
0.0
 51
90.0
  0
LINE
  5
479
330
1F
100
AcDbEntity
  8
SLD-0
100
AcDbLine
 10
311.2883344724766
 20
194.2892657045201
 30
0.0
 11
311.2883344724766
 21
126.6559936673721
 31
0.0
1001
PE_URL
1000

  0
LINE
  5
480
102
{ACAD_REACTORS
330
487
102
}
330
1F
100
AcDbEntity
  8
0
100
AcDbLine
 10
309.684181809085
 20
169.3679475670878
 30
0.0
 11
307.0383344724767
 21
171.6679475670878
 31
0.0
  0
LINE
  5
481
330
1F
100
AcDbEntity
  8
0
100
AcDbLine
 10
309.684181809085
 20
164.9679475670877
 30
0.0
 11
307.0383344724767
 21
162.6679475670878
 31
0.0
  0
LINE
  5
482
102
{ACAD_REACTORS
330
487
102
}
330
1F
100
AcDbEntity
  8
0
100
AcDbLine
 10
309.684181809085
 20
169.3679475670878
 30
0.0
 11
309.684181809085
 21
164.9679475670878
 31
0.0
  0
MTEXT
  5
483
330
1F
100
AcDbEntity
  8
0
100
AcDbMText
 10
331.1250536860142
 20
181.6823096248184
 30
0.0
 40
3.5
 41
21.95788476837691
 46
3.5
 71
     1
 72
     5
  1
{(0.17")DIA}
 73
     1
 44
1.0
1001
ACAD
1000
ACAD_MTEXT_DEFINED_HEIGHT_BEGIN
1070
    46
1040
3.5
1000
ACAD_MTEXT_DEFINED_HEIGHT_END
  0
MTEXT
  5
484
330
1F
100
AcDbEntity
  8
0
100
AcDbMText
 10
270.2334071298005
 20
146.4782952332258
 30
0.0
 40
3.5
 41
21.95788476837691
 46
3.5
 71
     1
 72
     5
  1
{(0.354")DIA}
 73
     1
 44
1.0
1001
ACAD
1000
ACAD_MTEXT_DEFINED_HEIGHT_BEGIN
1070
    46
1040
3.5
1000
ACAD_MTEXT_DEFINED_HEIGHT_END
  0
DIMENSION
  5
485
102
{ACAD_REACTORS
330
487
102
}
102
{ACAD_XDICTIONARY
360
486
102
}
330
1F
100
AcDbEntity
  8
0
100
AcDbDimension
  2
*D33
 10
307.0383344724767
 20
171.6679475670878
 30
0.0
 11
301.2192712563044
 21
184.7080067358735
 31
0.0
 70
   162
  1
<>
 71
     5
 42
0.8552113334772234
 73
     0
 74
     0
 75
     0
  3
ISO-25
100
AcDb2LineAngularDimension
 13
309.684181809085
 23
169.3679475670878
 33
0.0
 14
309.684181809085
 24
164.9679475670878
 34
0.0
 15
309.684181809085
 25
169.3679475670878
 35
0.0
 16
300.22741562429
 26
184.1172424415738
 36
0.0
1001
ACAD
1000
DSTYLE
1002
{
1070
   179
1070
     0
1070
    41
1040
3.302
1070
   271
1070
     3
1070
    44
1040
1.0
1070
    42
1040
1.0
1070
   147
1040
1.524
1070
   272
1070
     3
1070
    73
1070
     1
1070
    74
1070
     1
1070
   140
1040
3.5
1070
   284
1070
     0
1070
    78
1070
     0
1002
}
  0
MTEXT
  5
498
330
1F
100
AcDbEntity
  8
0
100
AcDbMText
 10
216.8956641744448
 20
164.9901873244769
 30
0.0
 40
3.556
 41
22.30921092467094
 46
3.5
 71
     1
 72
     5
  1
{(0.08")DIA}
 73
     1
 44
1.0
1001
ACAD
1000
ACAD_MTEXT_DEFINED_HEIGHT_BEGIN
1070
    46
1040
3.5
1000
ACAD_MTEXT_DEFINED_HEIGHT_END
  0
MTEXT
  5
499
330
1F
100
AcDbEntity
  8
0
100
AcDbMText
 10
166.3873563114026
 20
115.1545911479814
 30
0.0
 40
3.556
 41
22.30921092467094
 46
3.556
 71
     1
 72
     5
  1
{(2.0")}
 73
     1
 44
1.0
1001
ACAD
1000
ACAD_MTEXT_DEFINED_HEIGHT_BEGIN
1070
    46
1040
3.556
1000
ACAD_MTEXT_DEFINED_HEIGHT_END
  0
MTEXT
  5
49A
330
1F
100
AcDbEntity
  8
0
100
AcDbMText
 10
154.1612771013541
 20
131.6765216266504
 30
0.0
 40
3.556
 41
22.30921092467094
 46
3.556
 71
     1
 72
     5
  1
{(1.0")}
 73
     1
 44
1.0
1001
ACAD
1000
ACAD_MTEXT_DEFINED_HEIGHT_BEGIN
1070
    46
1040
3.556
1000
ACAD_MTEXT_DEFINED_HEIGHT_END
  0
MTEXT
  5
49B
330
1F
100
AcDbEntity
  8
0
100
AcDbMText
 10
132.7420226832318
 20
202.670444576246
 30
0.0
 40
3.556
 41
22.30921092467094
 46
3.556
 71
     1
 72
     5
  1
{(0.279")}
 73
     1
 44
1.0
1001
ACAD
1000
ACAD_MTEXT_DEFINED_HEIGHT_BEGIN
1070
    46
1040
3.556
1000
ACAD_MTEXT_DEFINED_HEIGHT_END
  0
MTEXT
  5
49C
330
1F
100
AcDbEntity
  8
0
100
AcDbMText
 10
163.138157292052
 20
194.3545989071626
 30
0.0
 40
3.556
 41
22.30921092467094
 46
3.556
 71
     1
 72
     5
  1
{(1.28")}
 73
     1
 44
1.0
1001
ACAD
1000
ACAD_MTEXT_DEFINED_HEIGHT_BEGIN
1070
    46
1040
3.556
1000
ACAD_MTEXT_DEFINED_HEIGHT_END
  0
MTEXT
  5
49D
330
1F
100
AcDbEntity
  8
0
100
AcDbMText
 10
122.0562986365914
 20
141.0192311756256
 30
0.0
 40
3.556
 41
22.30921092467094
 46
3.5
 71
     1
 72
     5
  1
{(0.709")}
 73
     1
 44
1.0
1001
ACAD
1000
ACAD_MTEXT_DEFINED_HEIGHT_BEGIN
1070
    46
1040
3.5
1000
ACAD_MTEXT_DEFINED_HEIGHT_END
  0
MTEXT
  5
49E
330
1F
100
AcDbEntity
  8
0
100
AcDbMText
 10
94.89016398918339
 20
161.4356200092898
 30
0.0
 40
3.556
 41
22.30921092467094
 46
3.556
 71
     1
 72
     5
  1
{(1.0")}
 73
     1
 44
1.0
1001
ACAD
1000
ACAD_MTEXT_DEFINED_HEIGHT_BEGIN
1070
    46
1040
3.556
1000
ACAD_MTEXT_DEFINED_HEIGHT_END
  0
LINE
  5
49F
330
1F
100
AcDbEntity
  8
0
100
AcDbLine
 10
148.6152082740828
 20
175.8744591709867
 30
0.0
 11
100.9168903098254
 21
175.8744591709867
 31
0.0
1001
ACAD
1000
DSTYLE
1002
{
1070
   144
1040
1.0
1070
   179
1070
     2
1070
    41
1040
3.302
1070
   271
1070
     0
1070
    44
1040
1.0
1070
    42
1040
1.0
1070
   147
1040
1.524
1070
   272
1070
     3
1070
    73
1070
     1
1070
    74
1070
     1
1070
   140
1040
3.5
1070
   284
1070
     0
1070
    78
1070
     0
1002
}
  0
LINE
  5
4A0
330
1F
100
AcDbEntity
  8
0
100
AcDbLine
 10
148.6152082740828
 20
150.4744591709867
 30
0.0
 11
100.9168903098254
 21
150.4744591709867
 31
0.0
1001
ACAD
1000
DSTYLE
1002
{
1070
   144
1040
1.0
1070
   179
1070
     2
1070
    41
1040
3.302
1070
   271
1070
     0
1070
    44
1040
1.0
1070
    42
1040
1.0
1070
   147
1040
1.524
1070
   272
1070
     3
1070
    73
1070
     1
1070
    74
1070
     1
1070
   140
1040
3.5
1070
   284
1070
     0
1070
    78
1070
     0
1002
}
  0
LINE
  5
4A1
330
1F
100
AcDbEntity
  8
0
100
AcDbLine
 10
101.9328903098254
 20
172.5196271709867
 30
0.0
 11
101.9328903098254
 21
168.514067136673
 31
0.0
1001
ACAD
1000
DSTYLE
1002
{
1070
   144
1040
1.0
1070
   179
1070
     2
1070
    41
1040
3.302
1070
   271
1070
     0
1070
    44
1040
1.0
1070
    42
1040
1.0
1070
   147
1040
1.524
1070
   272
1070
     3
1070
    73
1070
     1
1070
    74
1070
     1
1070
   140
1040
3.5
1070
   284
1070
     0
1070
    78
1070
     0
1002
}
  0
LINE
  5
4A2
330
1F
100
AcDbEntity
  8
0
100
AcDbLine
 10
101.9328903098254
 20
153.8292911709867
 30
0.0
 11
101.9328903098254
 21
156.3943416950157
 31
0.0
1001
ACAD
1000
DSTYLE
1002
{
1070
   144
1040
1.0
1070
   179
1070
     2
1070
    41
1040
3.302
1070
   271
1070
     0
1070
    44
1040
1.0
1070
    42
1040
1.0
1070
   147
1040
1.524
1070
   272
1070
     3
1070
    73
1070
     1
1070
    74
1070
     1
1070
   140
1040
3.5
1070
   284
1070
     0
1070
    78
1070
     0
1002
}
  0
SOLID
  5
4A3
330
1F
100
AcDbEntity
  8
0
100
AcDbTrace
 10
102.4920289764921
 20
172.5196271709867
 30
0.0
 11
101.3737516431588
 21
172.5196271709867
 31
0.0
 12
101.9328903098254
 22
175.8744591709867
 32
0.0
 13
101.9328903098254
 23
175.8744591709867
 33
0.0
1001
ACAD
1000
DSTYLE
1002
{
1070
   144
1040
1.0
1070
   179
1070
     2
1070
    41
1040
3.302
1070
   271
1070
     0
1070
    44
1040
1.0
1070
    42
1040
1.0
1070
   147
1040
1.524
1070
   272
1070
     3
1070
    73
1070
     1
1070
    74
1070
     1
1070
   140
1040
3.5
1070
   284
1070
     0
1070
    78
1070
     0
1002
}
  0
SOLID
  5
4A4
330
1F
100
AcDbEntity
  8
0
100
AcDbTrace
 10
101.3737516431588
 20
153.8292911709867
 30
0.0
 11
102.4920289764921
 21
153.8292911709867
 31
0.0
 12
101.9328903098254
 22
150.4744591709867
 32
0.0
 13
101.9328903098254
 23
150.4744591709867
 33
0.0
1001
ACAD
1000
DSTYLE
1002
{
1070
   144
1040
1.0
1070
   179
1070
     2
1070
    41
1040
3.302
1070
   271
1070
     0
1070
    44
1040
1.0
1070
    42
1040
1.0
1070
   147
1040
1.524
1070
   272
1070
     3
1070
    73
1070
     1
1070
    74
1070
     1
1070
   140
1040
3.5
1070
   284
1070
     0
1070
    78
1070
     0
1002
}
  0
MTEXT
  5
4A5
330
1F
100
AcDbEntity
  8
0
100
AcDbMText
 10
101.9328903098254
 20
165.1876831366729
 30
0.0
 40
3.556
 41
0.0
 46
3.556
 71
     5
 72
     1
  1
{25.4}
 73
     1
 44
1.0
1001
ACAD
1000
DSTYLE
1002
{
1070
   144
1040
1.0
1070
   179
1070
     2
1070
    41
1040
3.302
1070
   271
1070
     0
1070
    44
1040
1.0
1070
    42
1040
1.0
1070
   147
1040
1.524
1070
   272
1070
     3
1070
    73
1070
     1
1070
    74
1070
     1
1070
   140
1040
3.5
1070
   284
1070
     0
1070
    78
1070
     0
1002
}
1000
ACAD_MTEXT_DEFINED_HEIGHT_BEGIN
1070
    46
1040
3.556
1000
ACAD_MTEXT_DEFINED_HEIGHT_END
  0
LINE
  5
4A9
330
1F
100
AcDbEntity
  8
0
100
AcDbLine
 10
280.873738094218
 20
149.5459439517049
 30
0.0
 11
280.873738094218
 21
162.9025723392911
 31
0.0
1001
ACAD
1000
DSTYLE
1002
{
1070
   144
1040
1.0
1070
   179
1070
     2
1070
    41
1040
3.302
1070
   271
1070
     1
1070
    44
1040
1.0
1070
    42
1040
1.0
1070
   147
1040
1.524
1070
   272
1070
     3
1070
    73
1070
     1
1070
    74
1070
     1
1070
   140
1040
3.5
1070
   284
1070
     0
1070
    78
1070
     0
1002
}
  0
LINE
  5
4AA
330
1F
100
AcDbEntity
  8
0
100
AcDbLine
 10
305.2883344724767
 20
162.6679475670878
 30
0.0
 11
278.8926134202211
 21
162.6679475670878
 31
0.0
1001
ACAD
1000
DSTYLE
1002
{
1070
   144
1040
1.0
1070
   179
1070
     2
1070
    41
1040
3.302
1070
   271
1070
     1
1070
    44
1040
1.0
1070
    42
1040
1.0
1070
   147
1040
1.524
1070
   272
1070
     3
1070
    73
1070
     1
1070
    74
1070
     1
1070
   140
1040
3.5
1070
   284
1070
     0
1070
    78
1070
     0
1002
}
  0
LINE
  5
4AB
330
1F
100
AcDbEntity
  8
0
100
AcDbLine
 10
305.2883344724767
 20
171.6679475670878
 30
0.0
 11
278.8926134202211
 21
171.6679475670878
 31
0.0
1001
ACAD
1000
DSTYLE
1002
{
1070
   144
1040
1.0
1070
   179
1070
     2
1070
    41
1040
3.302
1070
   271
1070
     1
1070
    44
1040
1.0
1070
    42
1040
1.0
1070
   147
1040
1.524
1070
   272
1070
     3
1070
    73
1070
     1
1070
    74
1070
     1
1070
   140
1040
3.5
1070
   284
1070
     0
1070
    78
1070
     0
1002
}
  0
LINE
  5
4AC
330
1F
100
AcDbEntity
  8
0
100
AcDbLine
 10
280.873738094218
 20
162.9025723392911
 30
0.0
 11
280.873738094218
 21
171.9025723392911
 31
0.0
1001
ACAD
1000
DSTYLE
1002
{
1070
   144
1040
1.0
1070
   179
1070
     2
1070
    41
1040
3.302
1070
   271
1070
     1
1070
    44
1040
1.0
1070
    42
1040
1.0
1070
   147
1040
1.524
1070
   272
1070
     3
1070
    73
1070
     1
1070
    74
1070
     1
1070
   140
1040
3.5
1070
   284
1070
     0
1070
    78
1070
     0
1002
}
  0
LINE
  5
4AD
330
1F
100
AcDbEntity
  8
0
100
AcDbLine
 10
280.873738094218
 20
171.9025723392911
 30
0.0
 11
280.873738094218
 21
162.9025723392911
 31
0.0
1001
ACAD
1000
DSTYLE
1002
{
1070
   144
1040
1.0
1070
   179
1070
     2
1070
    41
1040
3.302
1070
   271
1070
     1
1070
    44
1040
1.0
1070
    42
1040
1.0
1070
   147
1040
1.524
1070
   272
1070
     3
1070
    73
1070
     1
1070
    74
1070
     1
1070
   140
1040
3.5
1070
   284
1070
     0
1070
    78
1070
     0
1002
}
  0
LINE
  5
4AE
330
1F
100
AcDbEntity
  8
0
100
AcDbLine
 10
280.873738094218
 20
175.2045723392911
 30
0.0
 11
280.873738094218
 21
178.5065723392911
 31
0.0
1001
ACAD
1000
DSTYLE
1002
{
1070
   144
1040
1.0
1070
   179
1070
     2
1070
    41
1040
3.302
1070
   271
1070
     1
1070
    44
1040
1.0
1070
    42
1040
1.0
1070
   147
1040
1.524
1070
   272
1070
     3
1070
    73
1070
     1
1070
    74
1070
     1
1070
   140
1040
3.5
1070
   284
1070
     0
1070
    78
1070
     0
1002
}
  0
SOLID
  5
4AF
330
1F
100
AcDbEntity
  8
0
100
AcDbTrace
 10
281.4240714275513
 20
159.6005723392911
 30
0.0
 11
280.3234047608846
 21
159.6005723392911
 31
0.0
 12
280.873738094218
 22
162.9025723392911
 32
0.0
 13
280.873738094218
 23
162.9025723392911
 33
0.0
1001
ACAD
1000
DSTYLE
1002
{
1070
   144
1040
1.0
1070
   179
1070
     2
1070
    41
1040
3.302
1070
   271
1070
     1
1070
    44
1040
1.0
1070
    42
1040
1.0
1070
   147
1040
1.524
1070
   272
1070
     3
1070
    73
1070
     1
1070
    74
1070
     1
1070
   140
1040
3.5
1070
   284
1070
     0
1070
    78
1070
     0
1002
}
  0
SOLID
  5
4B0
330
1F
100
AcDbEntity
  8
0
100
AcDbTrace
 10
280.3234047608846
 20
175.2045723392911
 30
0.0
 11
281.4240714275513
 21
175.2045723392911
 31
0.0
 12
280.873738094218
 22
171.9025723392911
 32
0.0
 13
280.873738094218
 23
171.9025723392911
 33
0.0
1001
ACAD
1000
DSTYLE
1002
{
1070
   144
1040
1.0
1070
   179
1070
     2
1070
    41
1040
3.302
1070
   271
1070
     1
1070
    44
1040
1.0
1070
    42
1040
1.0
1070
   147
1040
1.524
1070
   272
1070
     3
1070
    73
1070
     1
1070
    74
1070
     1
1070
   140
1040
3.5
1070
   284
1070
     0
1070
    78
1070
     0
1002
}
  0
MTEXT
  5
4B1
330
1F
100
AcDbEntity
  8
0
100
AcDbMText
 10
264.1359894166154
 20
144.1279639674711
 30
0.0
 40
3.5
 41
0.0
 46
0.0
 71
     5
 72
     1
  1
9,0
 73
     1
 44
1.0
1001
ACAD
1000
DSTYLE
1002
{
1070
   144
1040
1.0
1070
   179
1070
     2
1070
    41
1040
3.302
1070
   271
1070
     1
1070
    44
1040
1.0
1070
    42
1040
1.0
1070
   147
1040
1.524
1070
   272
1070
     3
1070
    73
1070
     1
1070
    74
1070
     1
1070
   140
1040
3.5
1070
   284
1070
     0
1070
    78
1070
     0
1002
}
  0
LINE
  5
4C2
330
1F
100
AcDbEntity
  8
0
100
AcDbLine
 10
125.3079269231508
 20
143.7871455414299
 30
0.0
 11
125.3079269231508
 21
150.4744590648147
 31
0.0
1001
ACAD
1000
DSTYLE
1002
{
1070
   144
1040
1.0
1070
   179
1070
     2
1070
    41
1040
3.302
1070
   271
1070
     1
1070
    44
1040
1.0
1070
    42
1040
1.0
1070
   147
1040
1.524
1070
   272
1070
     3
1070
    73
1070
     1
1070
    74
1070
     1
1070
   140
1040
3.5
1070
   284
1070
     0
1070
    78
1070
     0
1002
}
  0
LINE
  5
4C3
330
1F
100
AcDbEntity
  8
0
100
AcDbLine
 10
154.2032082740828
 20
168.7621854827355
 30
0.0
 11
124.2919269231508
 21
168.7621854827355
 31
0.0
1001
ACAD
1000
DSTYLE
1002
{
1070
   144
1040
1.0
1070
   179
1070
     2
1070
    41
1040
3.302
1070
   271
1070
     1
1070
    44
1040
1.0
1070
    42
1040
1.0
1070
   147
1040
1.524
1070
   272
1070
     3
1070
    73
1070
     1
1070
    74
1070
     1
1070
   140
1040
3.5
1070
   284
1070
     0
1070
    78
1070
     0
1002
}
  0
LINE
  5
4C4
330
1F
100
AcDbEntity
  8
0
100
AcDbLine
 10
148.6152082872908
 20
150.4744590648147
 30
0.0
 11
124.2919269231508
 21
150.4744590648147
 31
0.0
1001
ACAD
1000
DSTYLE
1002
{
1070
   144
1040
1.0
1070
   179
1070
     2
1070
    41
1040
3.302
1070
   271
1070
     1
1070
    44
1040
1.0
1070
    42
1040
1.0
1070
   147
1040
1.524
1070
   272
1070
     3
1070
    73
1070
     1
1070
    74
1070
     1
1070
   140
1040
3.5
1070
   284
1070
     0
1070
    78
1070
     0
1002
}
  0
LINE
  5
4C5
330
1F
100
AcDbEntity
  8
0
100
AcDbLine
 10
125.3079269231508
 20
165.4073534827355
 30
0.0
 11
125.3079269231508
 21
153.8292910648147
 31
0.0
1001
ACAD
1000
DSTYLE
1002
{
1070
   144
1040
1.0
1070
   179
1070
     2
1070
    41
1040
3.302
1070
   271
1070
     1
1070
    44
1040
1.0
1070
    42
1040
1.0
1070
   147
1040
1.524
1070
   272
1070
     3
1070
    73
1070
     1
1070
    74
1070
     1
1070
   140
1040
3.5
1070
   284
1070
     0
1070
    78
1070
     0
1002
}
  0
LINE
  5
4C6
330
1F
100
AcDbEntity
  8
0
100
AcDbLine
 10
125.3079269231508
 20
153.8292910648147
 30
0.0
 11
125.3079269231508
 21
165.4073534827355
 31
0.0
1001
ACAD
1000
DSTYLE
1002
{
1070
   144
1040
1.0
1070
   179
1070
     2
1070
    41
1040
3.302
1070
   271
1070
     1
1070
    44
1040
1.0
1070
    42
1040
1.0
1070
   147
1040
1.524
1070
   272
1070
     3
1070
    73
1070
     1
1070
    74
1070
     1
1070
   140
1040
3.5
1070
   284
1070
     0
1070
    78
1070
     0
1002
}
  0
SOLID
  5
4C7
330
1F
100
AcDbEntity
  8
0
100
AcDbTrace
 10
125.8670655898176
 20
165.4073534827355
 30
0.0
 11
124.7487882564842
 21
165.4073534827355
 31
0.0
 12
125.3079269231508
 22
168.7621854827355
 32
0.0
 13
125.3079269231508
 23
168.7621854827355
 33
0.0
1001
ACAD
1000
DSTYLE
1002
{
1070
   144
1040
1.0
1070
   179
1070
     2
1070
    41
1040
3.302
1070
   271
1070
     1
1070
    44
1040
1.0
1070
    42
1040
1.0
1070
   147
1040
1.524
1070
   272
1070
     3
1070
    73
1070
     1
1070
    74
1070
     1
1070
   140
1040
3.5
1070
   284
1070
     0
1070
    78
1070
     0
1002
}
  0
SOLID
  5
4C8
330
1F
100
AcDbEntity
  8
0
100
AcDbTrace
 10
124.7487882564842
 20
153.8292910648147
 30
0.0
 11
125.8670655898176
 21
153.8292910648147
 31
0.0
 12
125.3079269231508
 22
150.4744590648147
 32
0.0
 13
125.3079269231508
 23
150.4744590648147
 33
0.0
1001
ACAD
1000
DSTYLE
1002
{
1070
   144
1040
1.0
1070
   179
1070
     2
1070
    41
1040
3.302
1070
   271
1070
     1
1070
    44
1040
1.0
1070
    42
1040
1.0
1070
   147
1040
1.524
1070
   272
1070
     3
1070
    73
1070
     1
1070
    74
1070
     1
1070
   140
1040
3.5
1070
   284
1070
     0
1070
    78
1070
     0
1002
}
  0
MTEXT
  5
4C9
330
1F
100
AcDbEntity
  8
0
100
AcDbMText
 10
116.0695138849915
 20
139.2414884183611
 30
0.0
 40
3.556
 41
0.0
 46
0.0
 71
     5
 72
     1
  1
18,0
 73
     1
 44
1.0
1001
ACAD
1000
DSTYLE
1002
{
1070
   144
1040
1.0
1070
   179
1070
     2
1070
    41
1040
3.302
1070
   271
1070
     1
1070
    44
1040
1.0
1070
    42
1040
1.0
1070
   147
1040
1.524
1070
   272
1070
     3
1070
    73
1070
     1
1070
    74
1070
     1
1070
   140
1040
3.5
1070
   284
1070
     0
1070
    78
1070
     0
1002
}
  0
ENDSEC
  0
SECTION
  2
OBJECTS
  0
DICTIONARY
  5
C
330
0
100
AcDbDictionary
281
     1
  3
ACAD_DETAILVIEWSTYLE
350
382
  3
ACAD_GROUP
350
D
  3
ACAD_LAYOUT
350
1A
  3
ACAD_MATERIAL
350
36B
  3
ACAD_MLEADERSTYLE
350
365
  3
ACAD_MLINESTYLE
350
17
  3
ACAD_PLOTSETTINGS
350
19
  3
ACAD_PLOTSTYLENAME
350
E
  3
ACAD_SCALELIST
350
BE
  3
ACAD_SECTIONVIEWSTYLE
350
383
  3
ACAD_TABLESTYLE
350
379
  3
ACAD_VISUALSTYLE
350
2A
  3
AcDbVariableDictionary
350
363
  3
ACDB_RECOMPOSE_DATA
350
4D6
  3
APPDATA
350
37C
  0
SUN
  5
38C
330
29
100
AcDbSun
 90
        1
290
     0
 63
     7
421
 16777215
 40
1.0
291
     1
 91
  2455826
 92
 54000000
292
     0
 70
     2
 71
   256
280
     1
  0
DICTIONARY
  5
39B
330
39A
100
AcDbDictionary
280
     1
281
     1
  3
ACAD_DIMASSOC
360
39C
  0
DICTIONARY
  5
3AB
330
3AA
100
AcDbDictionary
280
     1
281
     1
  3
ACAD_DIMASSOC
360
3AC
  0
DICTIONARY
  5
3BB
330
3BA
100
AcDbDictionary
280
     1
281
     1
  3
ACAD_DIMASSOC
360
3BC
  0
DICTIONARY
  5
3CE
330
3CD
100
AcDbDictionary
280
     1
281
     1
  3
ACAD_DIMASSOC
360
3CF
  0
DICTIONARY
  5
3E0
330
3DF
100
AcDbDictionary
280
     1
281
     1
  3
ACAD_DIMASSOC
360
3E1
  0
DICTIONARY
  5
3F0
330
3EF
100
AcDbDictionary
280
     1
281
     1
  3
ACAD_DIMASSOC
360
3F1
  0
DICTIONARY
  5
439
330
438
100
AcDbDictionary
280
     1
281
     1
  3
ACAD_DIMASSOC
360
43A
  0
DICTIONARY
  5
486
330
485
100
AcDbDictionary
280
     1
281
     1
  3
ACAD_DIMASSOC
360
487
  0
DICTIONARY
  5
382
102
{ACAD_REACTORS
330
C
102
}
330
C
100
AcDbDictionary
281
     1
  0
DICTIONARY
  5
D
102
{ACAD_REACTORS
330
C
102
}
330
C
100
AcDbDictionary
281
     1
  0
DICTIONARY
  5
1A
102
{ACAD_REACTORS
330
C
102
}
330
C
100
AcDbDictionary
281
     1
  3
Layout1
350
1E
  3
Layout2
350
26
  3
Model
350
22
  0
DICTIONARY
  5
36B
102
{ACAD_REACTORS
330
C
102
}
330
C
100
AcDbDictionary
281
     1
  3
ByBlock
350
36D
  3
ByLayer
350
36C
  3
Global
350
36E
  0
DICTIONARY
  5
365
102
{ACAD_REACTORS
330
C
102
}
330
C
100
AcDbDictionary
281
     1
  3
Standard
350
37B
  0
DICTIONARY
  5
17
102
{ACAD_REACTORS
330
C
102
}
330
C
100
AcDbDictionary
281
     1
  3
Standard
350
18
  0
DICTIONARY
  5
19
102
{ACAD_REACTORS
330
C
102
}
330
C
100
AcDbDictionary
281
     1
  0
ACDBDICTIONARYWDFLT
  5
E
102
{ACAD_REACTORS
330
C
102
}
330
C
100
AcDbDictionary
281
     1
  3
Normal
350
F
100
AcDbDictionaryWithDefault
340
F
  0
DICTIONARY
  5
BE
102
{ACAD_REACTORS
330
C
102
}
330
C
100
AcDbDictionary
281
     1
  3
A0
350
BF
  3
A1
350
C0
  3
A2
350
C1
  3
A3
350
C2
  3
A4
350
C3
  3
A5
350
C4
  3
A6
350
C5
  3
A7
350
C6
  3
A8
350
C7
  3
A9
350
C8
  3
B0
350
C9
  3
B1
350
CA
  3
B2
350
CB
  3
B3
350
CC
  3
B4
350
CD
  3
B5
350
CE
  3
B6
350
CF
  3
B7
350
D0
  3
B8
350
D1
  3
B9
350
D2
  3
C0
350
D3
  3
C1
350
D4
  3
C2
350
D5
  3
C3
350
D6
  3
C4
350
D7
  3
C5
350
D8
  3
C6
350
D9
  3
C7
350
DA
  3
C8
350
DB
  3
C9
350
DC
  3
D0
350
DD
  3
D1
350
DE
  3
D2
350
DF
  0
DICTIONARY
  5
383
102
{ACAD_REACTORS
330
C
102
}
330
C
100
AcDbDictionary
281
     1
  0
DICTIONARY
  5
379
102
{ACAD_REACTORS
330
C
102
}
330
C
100
AcDbDictionary
281
     1
  3
Standard
350
37A
  0
DICTIONARY
  5
2A
102
{ACAD_REACTORS
330
C
102
}
330
C
100
AcDbDictionary
281
     1
  3
2dWireframe
350
2F
  3
3D Hidden
350
31
  3
3dWireframe
350
30
  3
Basic
350
32
  3
Brighten
350
36
  3
ColorChange
350
3A
  3
Conceptual
350
34
  3
Dim
350
35
  3
EdgeColorOff
350
373
  3
Facepattern
350
39
  3
Flat
350
2B
  3
FlatWithEdges
350
2C
  3
Gouraud
350
2D
  3
GouraudWithEdges
350
2E
  3
Hidden
350
370
  3
JitterOff
350
371
  3
Linepattern
350
38
  3
OverhangOff
350
372
  3
Realistic
350
33
  3
Shaded
350
378
  3
Shaded with edges
350
377
  3
Shades of Gray
350
374
  3
Sketchy
350
375
  3
Thicken
350
37
  3
Wireframe
350
36F
  3
X-Ray
350
376
  0
DICTIONARY
  5
363
102
{ACAD_REACTORS
330
C
102
}
330
C
100
AcDbDictionary
281
     1
  3
CANNOSCALE
350
37E
  3
CMLEADERSTYLE
350
380
  3
CTABLESTYLE
350
37F
  3
DIMASSOC
350
369
  3
HIDETEXT
350
36A
  3
MSLTSCALE
350
381
  3
XCLIPFRAME
350
38D
  0
XRECORD
  5
4D6
102
{ACAD_REACTORS
330
C
102
}
330
C
100
AcDbXrecord
280
     1
 90
        1
330
37A
  0
DICTIONARY
  5
37C
102
{ACAD_REACTORS
330
C
102
}
330
C
100
AcDbDictionary
281
     1
  0
DIMASSOC
  5
39C
102
{ACAD_REACTORS
330
39B
102
}
330
39B
100
AcDbDimAssoc
330
39A
 90
        3
 70
     0
 71
     1
  1
AcDbOsnapPointRef
 72
    13
331
2B5
 73
     0
 91
        0
 40
0.0
 10
0.0
 20
0.0
 30
0.0
 75
     0
  1
AcDbOsnapPointRef
 72
     1
331
2BD
 73
     0
 91
        0
 40
0.0
 10
0.0
 20
0.0
 30
0.0
 75
     0
  0
DIMASSOC
  5
3AC
102
{ACAD_REACTORS
330
3AB
102
}
330
3AB
100
AcDbDimAssoc
330
3AA
 90
        1
 70
     0
 71
     1
  1
AcDbOsnapPointRef
 72
    13
331
2B5
 73
     0
 91
        0
 40
0.0
 10
0.0
 20
0.0
 30
0.0
 75
     0
  0
DIMASSOC
  5
3BC
102
{ACAD_REACTORS
330
3BB
102
}
330
3BB
100
AcDbDimAssoc
330
3BA
 90
        3
 70
     0
 71
     1
  1
AcDbOsnapPointRef
 72
    13
331
2BE
 73
     0
 91
        0
 40
0.0
 10
0.0
 20
0.0
 30
0.0
 75
     0
  1
AcDbOsnapPointRef
 72
     8
331
2C3
 73
     0
 91
        0
 40
0.693635596685241
 10
0.0
 20
0.0
 30
0.0
 75
     1
  1
AcDbOsnapPointRef
 72
    13
331
2BE
 73
     0
 91
        0
 40
0.0
 10
0.0
 20
0.0
 30
0.0
 75
     0
  0
DIMASSOC
  5
3CF
102
{ACAD_REACTORS
330
3CE
102
}
330
3CE
100
AcDbDimAssoc
330
3CD
 90
        3
 70
     0
 71
     1
  1
AcDbOsnapPointRef
 72
     1
331
29B
 73
     0
 91
        0
 40
0.0
 10
0.0
 20
0.0
 30
0.0
 75
     0
  1
AcDbOsnapPointRef
 72
     3
331
2BF
 73
     0
 91
        0
 40
0.0
 10
0.0
 20
0.0
 30
0.0
 75
     0
  0
DIMASSOC
  5
3E1
102
{ACAD_REACTORS
330
3E0
102
}
330
3E0
100
AcDbDimAssoc
330
3DF
 90
        3
 70
     0
 71
     1
  1
AcDbOsnapPointRef
 72
     3
331
2BF
 73
     0
 91
        0
 40
0.0
 10
0.0
 20
0.0
 30
0.0
 75
     0
  1
AcDbOsnapPointRef
 72
     3
331
390
 73
     0
 91
        0
 40
0.0
 10
0.0
 20
0.0
 30
0.0
 75
     0
  0
DIMASSOC
  5
3F1
102
{ACAD_REACTORS
330
3F0
102
}
330
3F0
100
AcDbDimAssoc
330
3EF
 90
        3
 70
     0
 71
     1
  1
AcDbOsnapPointRef
 72
     3
331
390
 73
     0
 91
        0
 40
0.0
 10
0.0
 20
0.0
 30
0.0
 75
     0
  1
AcDbOsnapPointRef
 72
    13
331
28F
 73
     0
 91
        0
 40
0.0
 10
0.0
 20
0.0
 30
0.0
 75
     0
  0
DIMASSOC
  5
43A
102
{ACAD_REACTORS
330
439
102
}
330
439
100
AcDbDimAssoc
330
438
 90
        3
 70
     0
 71
     1
  1
AcDbOsnapPointRef
 72
     6
331
432
 73
     0
 91
        0
 40
1.0
 10
0.0
 20
0.0
 30
0.0
332
42C
 74
     0
 92
        0
 75
     0
  1
AcDbOsnapPointRef
 72
     6
331
42C
 73
     0
 91
        0
 40
0.6841782304268411
 10
0.0
 20
0.0
 30
0.0
332
431
 74
     0
 92
        0
 75
     0
  0
DIMASSOC
  5
487
102
{ACAD_REACTORS
330
486
102
}
330
486
100
AcDbDimAssoc
330
485
 90
       15
 70
     0
 71
     1
  1
AcDbOsnapPointRef
 72
    13
331
482
 73
     0
 91
        0
 40
0.0
 10
0.0
 20
0.0
 30
0.0
 75
     0
  1
AcDbOsnapPointRef
 72
     1
331
482
 73
     0
 91
        0
 40
0.0
 10
0.0
 20
0.0
 30
0.0
 75
     0
  1
AcDbOsnapPointRef
 72
    13
331
480
 73
     0
 91
        0
 40
0.0
 10
0.0
 20
0.0
 30
0.0
 75
     0
  1
AcDbOsnapPointRef
 72
     1
331
480
 73
     0
 91
        0
 40
0.0
 10
0.0
 20
0.0
 30
0.0
 75
     0
  0
LAYOUT
  5
1E
102
{ACAD_REACTORS
330
1A
102
}
330
1A
100
AcDbPlotSettings
  1

  2
none_device
  4

  6

 40
0.0
 41
0.0
 42
0.0
 43
0.0
 44
0.0
 45
0.0
 46
0.0
 47
0.0
 48
0.0
 49
0.0
140
0.0
141
0.0
142
1.0
143
1.0
 70
   688
 72
     0
 73
     0
 74
     5
  7

 75
    16
 76
     0
 77
     2
 78
   300
147
1.0
148
0.0
149
0.0
100
AcDbLayout
  1
Layout1
 70
     1
 71
     1
 10
0.0
 20
0.0
 11
420.0
 21
297.0
 12
0.0
 22
0.0
 32
0.0
 14
1.000000000000000E+20
 24
1.000000000000000E+20
 34
1.000000000000000E+20
 15
-1.000000000000000E+20
 25
-1.000000000000000E+20
 35
-1.000000000000000E+20
146
0.0
 13
0.0
 23
0.0
 33
0.0
 16
1.0
 26
0.0
 36
0.0
 17
0.0
 27
1.0
 37
0.0
 76
     0
330
1B
  0
LAYOUT
  5
26
102
{ACAD_REACTORS
330
1A
102
}
330
1A
100
AcDbPlotSettings
  1

  2
none_device
  4

  6

 40
0.0
 41
0.0
 42
0.0
 43
0.0
 44
0.0
 45
0.0
 46
0.0
 47
0.0
 48
0.0
 49
0.0
140
0.0
141
0.0
142
1.0
143
1.0
 70
   688
 72
     0
 73
     0
 74
     5
  7

 75
    16
 76
     0
 77
     2
 78
   300
147
1.0
148
0.0
149
0.0
100
AcDbLayout
  1
Layout2
 70
     1
 71
     2
 10
0.0
 20
0.0
 11
0.0
 21
0.0
 12
0.0
 22
0.0
 32
0.0
 14
0.0
 24
0.0
 34
0.0
 15
0.0
 25
0.0
 35
0.0
146
0.0
 13
0.0
 23
0.0
 33
0.0
 16
1.0
 26
0.0
 36
0.0
 17
0.0
 27
1.0
 37
0.0
 76
     0
330
23
  0
LAYOUT
  5
22
102
{ACAD_REACTORS
330
1A
102
}
330
1A
100
AcDbPlotSettings
  1

  2
none_device
  4

  6

 40
0.0
 41
0.0
 42
0.0
 43
0.0
 44
0.0
 45
0.0
 46
0.0
 47
0.0
 48
0.0
 49
0.0
140
0.0
141
0.0
142
1.0
143
1.0
 70
  1712
 72
     0
 73
     0
 74
     0
  7

 75
     0
 76
     0
 77
     2
 78
   300
147
1.0
148
0.0
149
0.0
100
AcDbLayout
  1
Model
 70
     1
 71
     0
 10
0.0
 20
0.0
 11
420.0
 21
297.0
 12
0.0
 22
0.0
 32
0.0
 14
5.155688116800007
 24
5.202125665500006
 34
0.0
 15
415.1556881168
 25
292.2021256655
 35
0.0
146
0.0
 13
0.0
 23
0.0
 33
0.0
 16
1.0
 26
0.0
 36
0.0
 17
0.0
 27
1.0
 37
0.0
 76
     0
330
1F
331
29
  0
MATERIAL
  5
36D
102
{ACAD_REACTORS
330
36B
102
}
330
36B
100
AcDbMaterial
  1
ByBlock
 72
     1
 94
      127
  0
MATERIAL
  5
36C
102
{ACAD_REACTORS
330
36B
102
}
330
36B
100
AcDbMaterial
  1
ByLayer
 72
     1
 94
      127
  0
MATERIAL
  5
36E
102
{ACAD_REACTORS
330
36B
102
}
330
36B
100
AcDbMaterial
  1
Global
 72
     1
 94
      127
  0
MLEADERSTYLE
  5
37B
102
{ACAD_REACTORS
330
365
102
}
330
365
100
AcDbMLeaderStyle
170
     2
171
     1
172
     0
 90
        2
 40
0.0
 41
0.0
173
     1
 91
-1056964608
340
14
 92
       -2
290
     1
 42
2.0
291
     1
 43
8.0
  3
Standard
341
0
 44
4.0
300

342
11
174
     1
178
     1
175
     1
176
     0
 93
-1056964608
 45
4.0
292
     0
297
     0
 46
4.0
343
0
 94
-1056964608
 47
1.0
 49
1.0
140
1.0
293
     1
141
0.0
294
     1
177
     0
142
1.0
295
     0
296
     0
143
3.75
1001
ACAD_MLEADERVER
1070
     2
  0
MLINESTYLE
  5
18
102
{ACAD_REACTORS
330
17
102
}
330
17
100
AcDbMlineStyle
  2
Standard
 70
     0
  3

 62
   256
 51
90.0
 52
90.0
 71
     2
 49
0.5
 62
   256
  6
BYLAYER
 49
-0.5
 62
   256
  6
BYLAYER
  0
ACDBPLACEHOLDER
  5
F
102
{ACAD_REACTORS
330
E
102
}
330
E
  0
SCALE
  5
BF
102
{ACAD_REACTORS
330
BE
102
}
330
BE
100
AcDbScale
 70
     0
300
1:1
140
1.0
141
1.0
290
     1
  0
SCALE
  5
C0
102
{ACAD_REACTORS
330
BE
102
}
330
BE
100
AcDbScale
 70
     0
300
1:2
140
1.0
141
2.0
290
     0
  0
SCALE
  5
C1
102
{ACAD_REACTORS
330
BE
102
}
330
BE
100
AcDbScale
 70
     0
300
1:4
140
1.0
141
4.0
290
     0
  0
SCALE
  5
C2
102
{ACAD_REACTORS
330
BE
102
}
330
BE
100
AcDbScale
 70
     0
300
1:5
140
1.0
141
5.0
290
     0
  0
SCALE
  5
C3
102
{ACAD_REACTORS
330
BE
102
}
330
BE
100
AcDbScale
 70
     0
300
1:8
140
1.0
141
8.0
290
     0
  0
SCALE
  5
C4
102
{ACAD_REACTORS
330
BE
102
}
330
BE
100
AcDbScale
 70
     0
300
1:10
140
1.0
141
10.0
290
     0
  0
SCALE
  5
C5
102
{ACAD_REACTORS
330
BE
102
}
330
BE
100
AcDbScale
 70
     0
300
1:16
140
1.0
141
16.0
290
     0
  0
SCALE
  5
C6
102
{ACAD_REACTORS
330
BE
102
}
330
BE
100
AcDbScale
 70
     0
300
1:20
140
1.0
141
20.0
290
     0
  0
SCALE
  5
C7
102
{ACAD_REACTORS
330
BE
102
}
330
BE
100
AcDbScale
 70
     0
300
1:30
140
1.0
141
30.0
290
     0
  0
SCALE
  5
C8
102
{ACAD_REACTORS
330
BE
102
}
330
BE
100
AcDbScale
 70
     0
300
1:40
140
1.0
141
40.0
290
     0
  0
SCALE
  5
C9
102
{ACAD_REACTORS
330
BE
102
}
330
BE
100
AcDbScale
 70
     0
300
1:50
140
1.0
141
50.0
290
     0
  0
SCALE
  5
CA
102
{ACAD_REACTORS
330
BE
102
}
330
BE
100
AcDbScale
 70
     0
300
1:100
140
1.0
141
100.0
290
     0
  0
SCALE
  5
CB
102
{ACAD_REACTORS
330
BE
102
}
330
BE
100
AcDbScale
 70
     0
300
2:1
140
2.0
141
1.0
290
     0
  0
SCALE
  5
CC
102
{ACAD_REACTORS
330
BE
102
}
330
BE
100
AcDbScale
 70
     0
300
4:1
140
4.0
141
1.0
290
     0
  0
SCALE
  5
CD
102
{ACAD_REACTORS
330
BE
102
}
330
BE
100
AcDbScale
 70
     0
300
8:1
140
8.0
141
1.0
290
     0
  0
SCALE
  5
CE
102
{ACAD_REACTORS
330
BE
102
}
330
BE
100
AcDbScale
 70
     0
300
10:1
140
10.0
141
1.0
290
     0
  0
SCALE
  5
CF
102
{ACAD_REACTORS
330
BE
102
}
330
BE
100
AcDbScale
 70
     0
300
100:1
140
100.0
141
1.0
290
     0
  0
SCALE
  5
D0
102
{ACAD_REACTORS
330
BE
102
}
330
BE
100
AcDbScale
 70
     0
300
1/128" = 1'-0"
140
0.0078125
141
12.0
290
     0
  0
SCALE
  5
D1
102
{ACAD_REACTORS
330
BE
102
}
330
BE
100
AcDbScale
 70
     0
300
1/64" = 1'-0"
140
0.015625
141
12.0
290
     0
  0
SCALE
  5
D2
102
{ACAD_REACTORS
330
BE
102
}
330
BE
100
AcDbScale
 70
     0
300
1/32" = 1'-0"
140
0.03125
141
12.0
290
     0
  0
SCALE
  5
D3
102
{ACAD_REACTORS
330
BE
102
}
330
BE
100
AcDbScale
 70
     0
300
1/16" = 1'-0"
140
0.0625
141
12.0
290
     0
  0
SCALE
  5
D4
102
{ACAD_REACTORS
330
BE
102
}
330
BE
100
AcDbScale
 70
     0
300
3/32" = 1'-0"
140
0.09375
141
12.0
290
     0
  0
SCALE
  5
D5
102
{ACAD_REACTORS
330
BE
102
}
330
BE
100
AcDbScale
 70
     0
300
1/8" = 1'-0"
140
0.125
141
12.0
290
     0
  0
SCALE
  5
D6
102
{ACAD_REACTORS
330
BE
102
}
330
BE
100
AcDbScale
 70
     0
300
3/16" = 1'-0"
140
0.1875
141
12.0
290
     0
  0
SCALE
  5
D7
102
{ACAD_REACTORS
330
BE
102
}
330
BE
100
AcDbScale
 70
     0
300
1/4" = 1'-0"
140
0.25
141
12.0
290
     0
  0
SCALE
  5
D8
102
{ACAD_REACTORS
330
BE
102
}
330
BE
100
AcDbScale
 70
     0
300
3/8" = 1'-0"
140
0.375
141
12.0
290
     0
  0
SCALE
  5
D9
102
{ACAD_REACTORS
330
BE
102
}
330
BE
100
AcDbScale
 70
     0
300
1/2" = 1'-0"
140
0.5
141
12.0
290
     0
  0
SCALE
  5
DA
102
{ACAD_REACTORS
330
BE
102
}
330
BE
100
AcDbScale
 70
     0
300
3/4" = 1'-0"
140
0.75
141
12.0
290
     0
  0
SCALE
  5
DB
102
{ACAD_REACTORS
330
BE
102
}
330
BE
100
AcDbScale
 70
     0
300
1" = 1'-0"
140
1.0
141
12.0
290
     0
  0
SCALE
  5
DC
102
{ACAD_REACTORS
330
BE
102
}
330
BE
100
AcDbScale
 70
     0
300
1-1/2" = 1'-0"
140
1.5
141
12.0
290
     0
  0
SCALE
  5
DD
102
{ACAD_REACTORS
330
BE
102
}
330
BE
100
AcDbScale
 70
     0
300
3" = 1'-0"
140
3.0
141
12.0
290
     0
  0
SCALE
  5
DE
102
{ACAD_REACTORS
330
BE
102
}
330
BE
100
AcDbScale
 70
     0
300
6" = 1'-0"
140
6.0
141
12.0
290
     0
  0
SCALE
  5
DF
102
{ACAD_REACTORS
330
BE
102
}
330
BE
100
AcDbScale
 70
     0
300
1'-0" = 1'-0"
140
12.0
141
12.0
290
     0
  0
TABLESTYLE
  5
37A
102
{ACAD_REACTORS
330
379
102
}
102
{ACAD_XDICTIONARY
360
4D4
102
}
330
379
100
AcDbTableStyle
  3
Standard
 70
     0
 71
     0
 40
0.06
 41
0.06
280
     0
281
     0
  7
Standard
140
4.5
170
     2
 62
     0
 63
   257
283
     0
 90
        4
 91
        0
  1

274
    -2
284
     1
 64
     0
275
    -2
285
     1
 65
     0
276
    -2
286
     1
 66
     0
277
    -2
287
     1
 67
     0
278
    -2
288
     1
 68
     0
279
    -2
289
     1
 69
     0
  7
Standard
140
6.0
170
     5
 62
     0
 63
   257
283
     0
 90
        4
 91
        0
  1

274
    -2
284
     1
 64
     0
275
    -2
285
     1
 65
     0
276
    -2
286
     1
 66
     0
277
    -2
287
     1
 67
     0
278
    -2
288
     1
 68
     0
279
    -2
289
     1
 69
     0
  7
Standard
140
4.5
170
     5
 62
     0
 63
   257
283
     0
 90
        4
 91
        0
  1

274
    -2
284
     1
 64
     0
275
    -2
285
     1
 65
     0
276
    -2
286
     1
 66
     0
277
    -2
287
     1
 67
     0
278
    -2
288
     1
 68
     0
279
    -2
289
     1
 69
     0
  0
VISUALSTYLE
  5
2F
102
{ACAD_REACTORS
330
2A
102
}
330
2A
100
AcDbVisualStyle
  2
2dWireframe
 70
     4
 71
     0
 72
     2
 73
     0
 90
        0
 40
-0.6
 41
-30.0
 62
     5
 63
     7
 74
     1
 91
        4
 64
     7
 65
   257
 75
     1
175
     1
 42
1.0
 92
        0
 66
   257
 43
1.0
 76
     1
 77
     6
 78
     2
 67
     7
 79
     5
170
     0
171
     0
290
     0
174
     0
 93
        1
 44
0.0
173
     0
291
     0
 45
0.0
  0
VISUALSTYLE
  5
31
102
{ACAD_REACTORS
330
2A
102
}
330
2A
100
AcDbVisualStyle
  2
3D Hidden
 70
     6
 71
     1
 72
     2
 73
     2
 90
        0
 40
-0.6
 41
-30.0
 62
     5
 63
     7
 74
     2
 91
        2
 64
     7
 65
   257
 75
     2
175
     1
 42
40.0
 92
        0
 66
   257
 43
1.0
 76
     1
 77
     6
 78
     2
 67
     7
 79
     3
170
     0
171
     0
290
     0
174
     0
 93
        1
 44
0.0
173
     0
291
     0
 45
0.0
  0
VISUALSTYLE
  5
30
102
{ACAD_REACTORS
330
2A
102
}
330
2A
100
AcDbVisualStyle
  2
3dWireframe
 70
     5
 71
     0
 72
     2
 73
     0
 90
        0
 40
-0.6
 41
-30.0
 62
     5
 63
     7
 74
     1
 91
        4
 64
     7
 65
   257
 75
     1
175
     1
 42
1.0
 92
        0
 66
   257
 43
1.0
 76
     1
 77
     6
 78
     2
 67
     7
 79
     5
170
     0
171
     0
290
     0
174
     0
 93
        1
 44
0.0
173
     0
291
     0
 45
0.0
  0
VISUALSTYLE
  5
32
102
{ACAD_REACTORS
330
2A
102
}
330
2A
100
AcDbVisualStyle
  2
Basic
 70
     7
 71
     1
 72
     0
 73
     1
 90
        0
 40
-0.6
 41
-30.0
 62
     5
 63
     7
 74
     0
 91
        4
 64
     7
 65
   257
 75
     1
175
     1
 42
1.0
 92
        8
 66
     7
 43
1.0
 76
     1
 77
     6
 78
     2
 67
     7
 79
     5
170
     0
171
     0
290
     0
174
     0
 93
        1
 44
0.0
173
     0
291
     1
 45
0.0
  0
VISUALSTYLE
  5
36
102
{ACAD_REACTORS
330
2A
102
}
330
2A
100
AcDbVisualStyle
  2
Brighten
 70
    12
 71
     2
 72
     2
 73
     0
 90
        0
 40
-0.6
 41
-30.0
 62
     5
 63
     7
 74
     1
 91
        4
 64
     7
 65
   257
 75
     1
175
     1
 42
1.0
 92
        8
 66
     7
 43
1.0
 76
     1
 77
     6
 78
     2
 67
     7
 79
     5
170
     0
171
     0
290
     0
174
     0
 93
        1
 44
50.0
173
     0
291
     1
 45
0.0
  0
VISUALSTYLE
  5
3A
102
{ACAD_REACTORS
330
2A
102
}
330
2A
100
AcDbVisualStyle
  2
ColorChange
 70
    16
 71
     2
 72
     2
 73
     3
 90
        0
 40
-0.6
 41
-30.0
 62
     5
 63
     8
 74
     1
 91
        4
 64
     7
 65
   257
 75
     1
175
     1
 42
1.0
 92
        8
 66
     8
 43
1.0
 76
     1
 77
     6
 78
     2
 67
     7
 79
     5
170
     0
171
     0
290
     0
174
     0
 93
        1
 44
0.0
173
     0
291
     1
 45
0.0
  0
VISUALSTYLE
  5
34
102
{ACAD_REACTORS
330
2A
102
}
330
2A
100
AcDbVisualStyle
  2
Conceptual
 70
     9
 71
     3
 72
     2
 73
     0
 90
        0
 40
-0.6
 41
-30.0
 62
     5
 63
     7
 74
     2
 91
        2
 64
     7
 65
   257
 75
     1
175
     1
 42
40.0
 92
        8
 66
     7
 43
1.0
 76
     1
 77
     6
 78
     2
 67
     7
 79
     3
170
     0
171
     0
290
     0
174
     0
 93
        1
 44
0.0
173
     0
291
     0
 45
0.0
  0
VISUALSTYLE
  5
35
102
{ACAD_REACTORS
330
2A
102
}
330
2A
100
AcDbVisualStyle
  2
Dim
 70
    11
 71
     2
 72
     2
 73
     0
 90
        0
 40
-0.6
 41
-30.0
 62
     5
 63
     7
 74
     1
 91
        4
 64
     7
 65
   257
 75
     1
175
     1
 42
1.0
 92
        8
 66
     7
 43
1.0
 76
     1
 77
     6
 78
     2
 67
     7
 79
     5
170
     0
171
     0
290
     0
174
     0
 93
        1
 44
-50.0
173
     0
291
     1
 45
0.0
  0
VISUALSTYLE
  5
373
102
{ACAD_REACTORS
330
2A
102
}
330
2A
100
AcDbVisualStyle
  2
EdgeColorOff
 70
    22
 71
     2
 72
     2
 73
     0
 90
        0
 40
0.6
 41
30.0
 62
     5
 63
     7
421
 16777215
 74
     1
 91
        4
 64
     7
 65
   257
 75
     1
175
     1
 42
1.0
 92
        8
 66
     7
 43
1.0
 76
     1
 77
     6
 78
     2
 67
     7
 79
     5
170
     0
171
     0
290
     0
174
     0
 93
        1
 44
0.0
173
     0
291
     1
 45
0.0
  0
VISUALSTYLE
  5
39
102
{ACAD_REACTORS
330
2A
102
}
330
2A
100
AcDbVisualStyle
  2
Facepattern
 70
    15
 71
     2
 72
     2
 73
     0
 90
        0
 40
-0.6
 41
-30.0
 62
     5
 63
     7
 74
     1
 91
        4
 64
     7
 65
   257
 75
     1
175
     1
 42
1.0
 92
        8
 66
     7
 43
1.0
 76
     1
 77
     6
 78
     2
 67
     7
 79
     5
170
     0
171
     0
290
     0
174
     0
 93
        1
 44
0.0
173
     0
291
     1
 45
0.0
  0
VISUALSTYLE
  5
2B
102
{ACAD_REACTORS
330
2A
102
}
330
2A
100
AcDbVisualStyle
  2
Flat
 70
     0
 71
     2
 72
     1
 73
     1
 90
        2
 40
-0.6
 41
30.0
 62
     5
 63
     7
 74
     0
 91
        4
 64
     7
 65
   257
 75
     1
175
     1
 42
1.0
 92
        8
 66
     7
 43
1.0
 76
     1
 77
     6
 78
     2
 67
     7
 79
     5
170
     0
171
     0
290
     0
174
     0
 93
       13
 44
0.0
173
     0
291
     1
 45
0.0
  0
VISUALSTYLE
  5
2C
102
{ACAD_REACTORS
330
2A
102
}
330
2A
100
AcDbVisualStyle
  2
FlatWithEdges
 70
     1
 71
     2
 72
     1
 73
     1
 90
        2
 40
-0.6
 41
30.0
 62
     5
 63
     7
 74
     1
 91
        4
 64
     7
 65
   257
 75
     1
175
     1
 42
1.0
 92
        0
 66
   257
 43
1.0
 76
     1
 77
     6
 78
     2
 67
     7
 79
     5
170
     0
171
     0
290
     0
174
     0
 93
       13
 44
0.0
173
     0
291
     1
 45
0.0
  0
VISUALSTYLE
  5
2D
102
{ACAD_REACTORS
330
2A
102
}
330
2A
100
AcDbVisualStyle
  2
Gouraud
 70
     2
 71
     2
 72
     2
 73
     1
 90
        2
 40
-0.6
 41
30.0
 62
     5
 63
     7
 74
     0
 91
        4
 64
     7
 65
   257
 75
     1
175
     1
 42
1.0
 92
        0
 66
     7
 43
1.0
 76
     1
 77
     6
 78
     2
 67
     7
 79
     5
170
     0
171
     0
290
     0
174
     0
 93
       13
 44
0.0
173
     0
291
     1
 45
0.0
  0
VISUALSTYLE
  5
2E
102
{ACAD_REACTORS
330
2A
102
}
330
2A
100
AcDbVisualStyle
  2
GouraudWithEdges
 70
     3
 71
     2
 72
     2
 73
     1
 90
        2
 40
-0.6
 41
30.0
 62
     5
 63
     7
 74
     1
 91
        4
 64
     7
 65
   257
 75
     1
175
     1
 42
1.0
 92
        0
 66
   257
 43
1.0
 76
     1
 77
     6
 78
     2
 67
     7
 79
     5
170
     0
171
     0
290
     0
174
     0
 93
       13
 44
0.0
173
     0
291
     1
 45
0.0
  0
VISUALSTYLE
  5
370
102
{ACAD_REACTORS
330
2A
102
}
330
2A
100
AcDbVisualStyle
  2
Hidden
 70
     6
 71
     1
 72
     2
 73
     2
 90
        0
 40
0.6
 41
30.0
 62
     5
 63
     7
421
 16777215
 74
     2
 91
        2
 64
     7
 65
   257
 75
     2
175
     1
 42
40.0
 92
        0
 66
   257
 43
1.0
 76
     1
 77
     6
 78
     2
 67
     7
 79
     3
170
     0
171
     0
290
     0
174
     0
 93
        1
 44
0.0
173
     0
291
     0
 45
0.0
  0
VISUALSTYLE
  5
371
102
{ACAD_REACTORS
330
2A
102
}
330
2A
100
AcDbVisualStyle
  2
JitterOff
 70
    20
 71
     2
 72
     2
 73
     0
 90
        0
 40
0.6
 41
30.0
 62
     5
 63
     7
421
 16777215
 74
     1
 91
        4
 64
     7
 65
   257
 75
     1
175
     1
 42
1.0
 92
       10
 66
     7
 43
1.0
 76
     1
 77
     6
 78
     2
 67
     7
 79
     5
170
     0
171
     0
290
     0
174
     0
 93
        1
 44
0.0
173
     0
291
     1
 45
0.0
  0
VISUALSTYLE
  5
38
102
{ACAD_REACTORS
330
2A
102
}
330
2A
100
AcDbVisualStyle
  2
Linepattern
 70
    14
 71
     2
 72
     2
 73
     0
 90
        0
 40
-0.6
 41
-30.0
 62
     5
 63
     7
 74
     1
 91
        4
 64
     7
 65
   257
 75
     7
175
     7
 42
1.0
 92
        8
 66
     7
 43
1.0
 76
     1
 77
     6
 78
     2
 67
     7
 79
     5
170
     0
171
     0
290
     0
174
     0
 93
        1
 44
0.0
173
     0
291
     1
 45
0.0
  0
VISUALSTYLE
  5
372
102
{ACAD_REACTORS
330
2A
102
}
330
2A
100
AcDbVisualStyle
  2
OverhangOff
 70
    21
 71
     2
 72
     2
 73
     0
 90
        0
 40
0.6
 41
30.0
 62
     5
 63
     7
421
 16777215
 74
     1
 91
        4
 64
     7
 65
   257
 75
     1
175
     1
 42
1.0
 92
        9
 66
     7
 43
1.0
 76
     1
 77
     6
 78
     2
 67
     7
 79
     5
170
     0
171
     0
290
     0
174
     0
 93
        1
 44
0.0
173
     0
291
     1
 45
0.0
  0
VISUALSTYLE
  5
33
102
{ACAD_REACTORS
330
2A
102
}
330
2A
100
AcDbVisualStyle
  2
Realistic
 70
     8
 71
     2
 72
     2
 73
     0
 90
        0
 40
-0.6
 41
-30.0
 62
     5
 63
     7
 74
     1
 91
        0
 64
     7
 65
   257
 75
     1
175
     1
 42
1.0
 92
        8
 66
     8
 43
1.0
 76
     1
 77
     6
 78
     2
 67
     7
 79
     5
170
     0
171
     0
290
     0
174
     0
 93
       13
 44
0.0
173
     0
291
     0
 45
0.0
  0
VISUALSTYLE
  5
378
102
{ACAD_REACTORS
330
2A
102
}
330
2A
100
AcDbVisualStyle
  2
Shaded
 70
    27
 71
     2
 72
     2
 73
     1
 90
        2
 40
0.6
 41
30.0
 62
     5
 63
     7
421
 16777215
 74
     0
 91
        4
 64
     7
 65
   257
 75
     1
175
     1
 42
1.0
 92
        8
 66
   257
 43
1.0
 76
     1
 77
     6
 78
     2
 67
     8
425
  7895160
 79
     3
170
     0
171
     0
290
     0
174
     0
 93
        5
 44
0.0
173
     0
291
     0
 45
0.0
  0
VISUALSTYLE
  5
377
102
{ACAD_REACTORS
330
2A
102
}
330
2A
100
AcDbVisualStyle
  2
Shaded with edges
 70
    26
 71
     2
 72
     2
 73
     1
 90
        2
 40
0.6
 41
30.0
 62
     5
 63
     7
421
 16777215
 74
     1
 91
       10
 64
     7
 65
   257
 75
     2
175
     1
 42
1.0
 92
        8
 66
   257
 43
1.0
 76
     1
 77
     6
 78
     2
 67
     7
 79
     3
170
     0
171
     0
290
     0
174
     0
 93
        5
 44
0.0
173
     0
291
     0
 45
0.0
  0
VISUALSTYLE
  5
374
102
{ACAD_REACTORS
330
2A
102
}
330
2A
100
AcDbVisualStyle
  2
Shades of Gray
 70
    23
 71
     2
 72
     2
 73
     3
 90
        0
 40
0.6
 41
30.0
 62
     5
 63
     7
421
 16777215
 74
     2
 91
        2
 64
     7
 65
     7
 75
     1
175
     1
 42
40.0
 92
        8
 66
     7
 43
1.0
 76
     1
 77
     6
 78
     2
 67
     7
 79
     3
170
     0
171
     0
290
     0
174
     0
 93
        1
 44
0.0
173
     0
291
     0
 45
0.0
  0
VISUALSTYLE
  5
375
102
{ACAD_REACTORS
330
2A
102
}
330
2A
100
AcDbVisualStyle
  2
Sketchy
 70
    24
 71
     1
 72
     2
 73
     2
 90
        0
 40
0.6
 41
30.0
 62
     5
 63
     7
421
 16777215
 74
     2
 91
        2
 64
     7
 65
     7
 75
     1
175
     1
 42
40.0
 92
       11
 66
     7
 43
1.0
 76
     1
 77
     6
 78
     2
 67
     7
 79
     6
170
     0
171
     0
290
     0
174
     0
 93
        1
 44
0.0
173
     0
291
     0
 45
0.0
  0
VISUALSTYLE
  5
37
102
{ACAD_REACTORS
330
2A
102
}
330
2A
100
AcDbVisualStyle
  2
Thicken
 70
    13
 71
     2
 72
     2
 73
     0
 90
        0
 40
-0.6
 41
-30.0
 62
     5
 63
     7
 74
     1
 91
        4
 64
     7
 65
   257
 75
     1
175
     1
 42
1.0
 92
       12
 66
     7
 43
1.0
 76
     1
 77
     6
 78
     2
 67
     7
 79
     5
170
     0
171
     0
290
     0
174
     0
 93
        1
 44
0.0
173
     0
291
     1
 45
0.0
  0
VISUALSTYLE
  5
36F
102
{ACAD_REACTORS
330
2A
102
}
330
2A
100
AcDbVisualStyle
  2
Wireframe
 70
     5
 71
     0
 72
     2
 73
     0
 90
        0
 40
0.6
 41
30.0
 62
     5
 63
     7
421
 16777215
 74
     1
 91
        4
 64
     7
 65
   257
 75
     1
175
     1
 42
1.0
 92
        0
 66
   257
 43
1.0
 76
     1
 77
     6
 78
     2
 67
     7
 79
     3
170
     0
171
     0
290
     0
174
     0
 93
        1
 44
0.0
173
     0
291
     0
 45
0.0
  0
VISUALSTYLE
  5
376
102
{ACAD_REACTORS
330
2A
102
}
330
2A
100
AcDbVisualStyle
  2
X-Ray
 70
    25
 71
     2
 72
     2
 73
     1
 90
        1
 40
0.5
 41
30.0
 62
     5
 63
     7
421
 16777215
 74
     1
 91
        0
 64
     7
 65
   257
 75
     1
175
     1
 42
1.0
 92
        8
 66
     7
 43
1.0
 76
     1
 77
     6
 78
     2
 67
     7
 79
     3
170
     0
171
     0
290
     0
174
     0
 93
       13
 44
0.0
173
     0
291
     0
 45
0.0
  0
DICTIONARYVAR
  5
37E
102
{ACAD_REACTORS
330
363
102
}
330
363
100
DictionaryVariables
280
     0
  1
1:1
  0
DICTIONARYVAR
  5
380
102
{ACAD_REACTORS
330
363
102
}
330
363
100
DictionaryVariables
280
     0
  1
Standard
  0
DICTIONARYVAR
  5
37F
102
{ACAD_REACTORS
330
363
102
}
330
363
100
DictionaryVariables
280
     0
  1
Standard
  0
DICTIONARYVAR
  5
369
102
{ACAD_REACTORS
330
363
102
}
330
363
100
DictionaryVariables
280
     0
  1
2
  0
DICTIONARYVAR
  5
36A
102
{ACAD_REACTORS
330
363
102
}
330
363
100
DictionaryVariables
280
     0
  1
1
  0
DICTIONARYVAR
  5
381
102
{ACAD_REACTORS
330
363
102
}
330
363
100
DictionaryVariables
280
     0
  1
0
  0
DICTIONARYVAR
  5
38D
102
{ACAD_REACTORS
330
363
102
}
330
363
100
DictionaryVariables
280
     0
  1
0
  0
DICTIONARY
  5
4D4
330
37A
100
AcDbDictionary
280
     1
281
     1
  3
ACAD_ROUNDTRIP_2008_TABLESTYLE_CELLSTYLEMAP
360
4D5
  0
CELLSTYLEMAP
  5
4D5
102
{ACAD_REACTORS
330
4D4
102
}
330
4D4
100
AcDbCellStyleMap
 90
        3
300
CELLSTYLE
  1
TABLEFORMAT_BEGIN
 90
        5
170
     1
 91
        0
 92
    32768
 62
   257
 93
        1
300
CONTENTFORMAT
  1
CONTENTFORMAT_BEGIN
 90
        0
 91
        0
 92
        4
 93
        0
300

 40
0.0
140
1.0
 94
        5
 62
     0
340
11
144
6.0
309
CONTENTFORMAT_END
171
     1
301
MARGIN
  1
CELLMARGIN_BEGIN
 40
1.5
 40
1.5
 40
1.5
 40
1.5
 40
1.5
 40
1.5
309
CELLMARGIN_END
 94
        6
 95
        1
302
GRIDFORMAT
  1
GRIDFORMAT_BEGIN
 90
        0
 91
        1
 62
     0
 92
       -2
340
14
 93
        0
 40
0.045
309
GRIDFORMAT_END
 95
        2
302
GRIDFORMAT
  1
GRIDFORMAT_BEGIN
 90
        0
 91
        1
 62
     0
 92
       -2
340
14
 93
        0
 40
0.045
309
GRIDFORMAT_END
 95
        4
302
GRIDFORMAT
  1
GRIDFORMAT_BEGIN
 90
        0
 91
        1
 62
     0
 92
       -2
340
14
 93
        0
 40
0.045
309
GRIDFORMAT_END
 95
        8
302
GRIDFORMAT
  1
GRIDFORMAT_BEGIN
 90
        0
 91
        1
 62
     0
 92
       -2
340
14
 93
        0
 40
0.045
309
GRIDFORMAT_END
 95
       16
302
GRIDFORMAT
  1
GRIDFORMAT_BEGIN
 90
        0
 91
        1
 62
     0
 92
       -2
340
14
 93
        0
 40
0.045
309
GRIDFORMAT_END
 95
       32
302
GRIDFORMAT
  1
GRIDFORMAT_BEGIN
 90
        0
 91
        1
 62
     0
 92
       -2
340
14
 93
        0
 40
0.045
309
GRIDFORMAT_END
309
TABLEFORMAT_END
  1
CELLSTYLE_BEGIN
 90
        1
 91
        1
300
_TITLE
309
CELLSTYLE_END
300
CELLSTYLE
  1
TABLEFORMAT_BEGIN
 90
        5
170
     1
 91
        0
 92
        0
 62
   257
 93
        1
300
CONTENTFORMAT
  1
CONTENTFORMAT_BEGIN
 90
        0
 91
        0
 92
        4
 93
        0
300

 40
0.0
140
1.0
 94
        5
 62
     0
340
11
144
4.5
309
CONTENTFORMAT_END
171
     1
301
MARGIN
  1
CELLMARGIN_BEGIN
 40
1.5
 40
1.5
 40
1.5
 40
1.5
 40
1.5
 40
1.5
309
CELLMARGIN_END
 94
        6
 95
        1
302
GRIDFORMAT
  1
GRIDFORMAT_BEGIN
 90
        0
 91
        1
 62
     0
 92
       -2
340
14
 93
        0
 40
0.045
309
GRIDFORMAT_END
 95
        2
302
GRIDFORMAT
  1
GRIDFORMAT_BEGIN
 90
        0
 91
        1
 62
     0
 92
       -2
340
14
 93
        0
 40
0.045
309
GRIDFORMAT_END
 95
        4
302
GRIDFORMAT
  1
GRIDFORMAT_BEGIN
 90
        0
 91
        1
 62
     0
 92
       -2
340
14
 93
        0
 40
0.045
309
GRIDFORMAT_END
 95
        8
302
GRIDFORMAT
  1
GRIDFORMAT_BEGIN
 90
        0
 91
        1
 62
     0
 92
       -2
340
14
 93
        0
 40
0.045
309
GRIDFORMAT_END
 95
       16
302
GRIDFORMAT
  1
GRIDFORMAT_BEGIN
 90
        0
 91
        1
 62
     0
 92
       -2
340
14
 93
        0
 40
0.045
309
GRIDFORMAT_END
 95
       32
302
GRIDFORMAT
  1
GRIDFORMAT_BEGIN
 90
        0
 91
        1
 62
     0
 92
       -2
340
14
 93
        0
 40
0.045
309
GRIDFORMAT_END
309
TABLEFORMAT_END
  1
CELLSTYLE_BEGIN
 90
        2
 91
        1
300
_HEADER
309
CELLSTYLE_END
300
CELLSTYLE
  1
TABLEFORMAT_BEGIN
 90
        5
170
     1
 91
        0
 92
        0
 62
   257
 93
        1
300
CONTENTFORMAT
  1
CONTENTFORMAT_BEGIN
 90
        0
 91
        0
 92
        4
 93
        0
300

 40
0.0
140
1.0
 94
        2
 62
     0
340
11
144
4.5
309
CONTENTFORMAT_END
171
     1
301
MARGIN
  1
CELLMARGIN_BEGIN
 40
1.5
 40
1.5
 40
1.5
 40
1.5
 40
1.5
 40
1.5
309
CELLMARGIN_END
 94
        6
 95
        1
302
GRIDFORMAT
  1
GRIDFORMAT_BEGIN
 90
        0
 91
        1
 62
     0
 92
       -2
340
14
 93
        0
 40
0.045
309
GRIDFORMAT_END
 95
        2
302
GRIDFORMAT
  1
GRIDFORMAT_BEGIN
 90
        0
 91
        1
 62
     0
 92
       -2
340
14
 93
        0
 40
0.045
309
GRIDFORMAT_END
 95
        4
302
GRIDFORMAT
  1
GRIDFORMAT_BEGIN
 90
        0
 91
        1
 62
     0
 92
       -2
340
14
 93
        0
 40
0.045
309
GRIDFORMAT_END
 95
        8
302
GRIDFORMAT
  1
GRIDFORMAT_BEGIN
 90
        0
 91
        1
 62
     0
 92
       -2
340
14
 93
        0
 40
0.045
309
GRIDFORMAT_END
 95
       16
302
GRIDFORMAT
  1
GRIDFORMAT_BEGIN
 90
        0
 91
        1
 62
     0
 92
       -2
340
14
 93
        0
 40
0.045
309
GRIDFORMAT_END
 95
       32
302
GRIDFORMAT
  1
GRIDFORMAT_BEGIN
 90
        0
 91
        1
 62
     0
 92
       -2
340
14
 93
        0
 40
0.045
309
GRIDFORMAT_END
309
TABLEFORMAT_END
  1
CELLSTYLE_BEGIN
 90
        3
 91
        2
300
_DATA
309
CELLSTYLE_END
  0
ENDSEC
  0
EOF
